999
DXF file: 1618_template.dxf
999
Pro/ENGINEER 2015080 by Parametric Technology Corporation
  0
SECTION
  2
HEADER
  9
$ACADVER
  1
AC1027
  9
$DWGCODEPAGE
  3
ANSI_1252
  9
$EXTMAX
 10
44.0
 20
34.0
 30
0.0
  9
$EXTMIN
 10
0.0
 20
0.0
 30
0.0
  9
$LIMMIN
 10
0.0
 20
0.0
  9
$LIMMAX
 10
44.0
 20
34.0
  9
$VIEWCTR
 10
22.0
 20
17.0
  9
$VIEWSIZE
 40
34.0
  9
$CLAYER
  8
0
  9
$LTSCALE
 40
2.42
  9
$CELTYPE
  6
BYLAYER
  9
$DIMSCALE
 40
1.0
  9
$DIMASZ
 40
0.125
  9
$DIMEXO
 40
0.0625
  9
$DIMDLI
 40
1.672
  9
$DIMEXE
 40
0.06
  9
$DIMCEN
 40
0.396
  9
$DIMLFAC
 40
1.0
  9
$DIMBLK
  1
_FILLED
  9
$DIMALT
 70
0
  9
$DIMALTF
 40
25.4
  9
$DIMTXT
 40
0.125
  9
$DIMTOL
 70
1
  9
$DIMLIM
 70
0
  9
$DIMTFAC
 40
1.0
  9
$DIMTP
 40
0.001
  9
$DIMTM
 40
0.001
  9
$DIMGAP
 40
0.09
  9
$DIMDSEP
 70
46
  9
$AUNITS
 70
0
  9
$PDMODE
 70
3
  9
$PDSIZE
 40
0.3125
  9
$HANDSEED
  5
36F
  9
$TILEMODE
 70
1
  9
$MEASUREMENT
 70
0
  9
$INSUNITS
 70
1
  0
ENDSEC
  0
SECTION
  2
CLASSES
  0
CLASS
  1
ACDBDICTIONARYWDFLT
  2
AcDbDictionaryWithDefault
  3
AutoCAD 2000
 90
0
 91
1
280
0
281
0
  0
CLASS
  1
ACDBPLACEHOLDER
  2
AcDbPlaceHolder
  3
AutoCAD 2000
 90
0
 91
1
280
0
281
0
  0
CLASS
  1
LAYOUT
  2
AcDbLayout
  3
AutoCAD 2000
 90
0
 91
0
280
0
281
0
  0
ENDSEC
  0
SECTION
  2
TABLES
  0
TABLE
  2
VPORT
  5
8
100
AcDbSymbolTable
 70
2
  0
VPORT
  5
1F4
100
AcDbSymbolTableRecord
100
AcDbViewportTableRecord
  2
*ACTIVE
 70
0
 10
0.0
 20
0.0
 11
1.0
 21
1.0
 12
22.0
 22
17.0
 13
0.0
 23
0.0
 14
1.0
 24
1.0
 15
0.0
 25
0.0
 16
0.0
 26
0.0
 36
1.0
 17
0.0
 27
0.0
 37
0.0
 40
34.0
 41
1.2941176471
 42
50.0
 43
0.0
 44
0.0
 50
0.0
 51
0.0
 71
0
 72
100
 73
1
 74
1
 75
0
 76
0
 77
0
 78
0
  0
ENDTAB
  0
TABLE
  2
LTYPE
  5
5
100
AcDbSymbolTable
 70
6
  0
LTYPE
  5
14
100
AcDbSymbolTableRecord
100
AcDbLinetypeTableRecord
  2
BYBLOCK
 70
0
  3

 72
65
 73
0
 40
0.0
  0
LTYPE
  5
15
100
AcDbSymbolTableRecord
100
AcDbLinetypeTableRecord
  2
BYLAYER
 70
0
  3

 72
65
 73
0
 40
0.0
  0
LTYPE
  5
16
100
AcDbSymbolTableRecord
100
AcDbLinetypeTableRecord
  2
CONTINUOUS
 70
64
  3
Solid line
 72
65
 73
0
 40
0.0
  0
LTYPE
  5
1F5
100
AcDbSymbolTableRecord
100
AcDbLinetypeTableRecord
  2
CENTER
 70
64
  3
____ _ ____ _ ____ _ ____ _ ____ _ ____ _ ____
 72
65
 73
4
 40
0.6
 49
0.375
 74
0
 49
-0.075
 74
0
 49
0.075
 74
0
 49
-0.075
 74
0
  0
LTYPE
  5
1F6
100
AcDbSymbolTableRecord
100
AcDbLinetypeTableRecord
  2
HIDDEN
 70
64
  3
- - - - - - - - - - - - - - - - - - - -
 72
65
 73
2
 40
0.2
 49
0.1
 74
0
 49
-0.1
 74
0
  0
LTYPE
  5
1F7
100
AcDbSymbolTableRecord
100
AcDbLinetypeTableRecord
  2
PHANTOM
 70
64
  3
_____ _ _ _____ _ _ _____ _ _ _____
 72
65
 73
6
 40
0.8
 49
0.45
 74
0
 49
-0.05
 74
0
 49
0.1
 74
0
 49
-0.05
 74
0
 49
0.1
 74
0
 49
-0.05
 74
0
  0
LTYPE
  5
1F8
100
AcDbSymbolTableRecord
100
AcDbLinetypeTableRecord
  2
DOT
 70
64
  3
. . . . . . . . . . . . . . . . . . . .
 72
65
 73
2
 40
0.2
 49
0.1
 74
0
 49
-0.1
 74
0
  0
LTYPE
  5
1F9
100
AcDbSymbolTableRecord
100
AcDbLinetypeTableRecord
  2
DASHED
 70
64
  3
- - - - - - - - - - - - - - - - - - - -
 72
65
 73
2
 40
0.2
 49
0.1
 74
0
 49
-0.1
 74
0
  0
ENDTAB
  0
TABLE
  2
LAYER
  5
2
100
AcDbSymbolTable
 70
36
  0
LAYER
  5
10
100
AcDbSymbolTableRecord
100
AcDbLayerTableRecord
  2
0
 70
0
 62
7
  6
CONTINUOUS
370
-3
390
F
  0
LAYER
  5
1FA
100
AcDbSymbolTableRecord
100
AcDbLayerTableRecord
  2
DEFAULT_1
 70
0
 62
7
  6
CENTER
370
-3
390
F
  0
LAYER
  5
1FB
100
AcDbSymbolTableRecord
100
AcDbLayerTableRecord
  2
DEFAULT_2
 70
0
 62
8
  6
HIDDEN
370
-3
390
F
  0
LAYER
  5
1FC
100
AcDbSymbolTableRecord
100
AcDbLayerTableRecord
  2
DEFAULT_3
 70
0
 62
7
  6
PHANTOM
370
-3
390
F
  0
LAYER
  5
1FD
100
AcDbSymbolTableRecord
100
AcDbLayerTableRecord
  2
01_ALL_DTM_PLN
 70
0
 62
7
  6
CONTINUOUS
370
-3
390
F
  0
LAYER
  5
1FE
100
AcDbSymbolTableRecord
100
AcDbLayerTableRecord
  2
01__ASM_ALL_DTM_PLN
 70
0
 62
7
  6
CONTINUOUS
370
-3
390
F
  0
LAYER
  5
1FF
100
AcDbSymbolTableRecord
100
AcDbLayerTableRecord
  2
01__ASM_DEF_DTM_PLN
 70
0
 62
7
  6
CONTINUOUS
370
-3
390
F
  0
LAYER
  5
200
100
AcDbSymbolTableRecord
100
AcDbLayerTableRecord
  2
01___PRT_ALL_DTM_PLN
 70
0
 62
7
  6
CONTINUOUS
370
-3
390
F
  0
LAYER
  5
201
100
AcDbSymbolTableRecord
100
AcDbLayerTableRecord
  2
01___PRT_DEF_DTM_PLN
 70
0
 62
7
  6
CONTINUOUS
370
-3
390
F
  0
LAYER
  5
202
100
AcDbSymbolTableRecord
100
AcDbLayerTableRecord
  2
02_ALL_AXES
 70
0
 62
7
  6
CONTINUOUS
370
-3
390
F
  0
LAYER
  5
203
100
AcDbSymbolTableRecord
100
AcDbLayerTableRecord
  2
02__ASM_ALL_AXES
 70
0
 62
7
  6
CONTINUOUS
370
-3
390
F
  0
LAYER
  5
204
100
AcDbSymbolTableRecord
100
AcDbLayerTableRecord
  2
02___PRT_ALL_AXES
 70
0
 62
7
  6
CONTINUOUS
370
-3
390
F
  0
LAYER
  5
205
100
AcDbSymbolTableRecord
100
AcDbLayerTableRecord
  2
03_ALL_CURVES
 70
0
 62
7
  6
CONTINUOUS
370
-3
390
F
  0
LAYER
  5
206
100
AcDbSymbolTableRecord
100
AcDbLayerTableRecord
  2
03__ASM_ALL_CURVES
 70
0
 62
7
  6
CONTINUOUS
370
-3
390
F
  0
LAYER
  5
207
100
AcDbSymbolTableRecord
100
AcDbLayerTableRecord
  2
03___PRT_ALL_CURVES
 70
0
 62
7
  6
CONTINUOUS
370
-3
390
F
  0
LAYER
  5
208
100
AcDbSymbolTableRecord
100
AcDbLayerTableRecord
  2
04_ALL_DTM_PNT
 70
0
 62
7
  6
CONTINUOUS
370
-3
390
F
  0
LAYER
  5
209
100
AcDbSymbolTableRecord
100
AcDbLayerTableRecord
  2
04__ASM_ALL_DTM_PNT
 70
0
 62
7
  6
CONTINUOUS
370
-3
390
F
  0
LAYER
  5
20A
100
AcDbSymbolTableRecord
100
AcDbLayerTableRecord
  2
04___PRT_ALL_DTM_PNT
 70
0
 62
7
  6
CONTINUOUS
370
-3
390
F
  0
LAYER
  5
20B
100
AcDbSymbolTableRecord
100
AcDbLayerTableRecord
  2
05_ALL_DTM_CSYS
 70
0
 62
7
  6
CONTINUOUS
370
-3
390
F
  0
LAYER
  5
20C
100
AcDbSymbolTableRecord
100
AcDbLayerTableRecord
  2
05__ASM_ALL_DTM_CSYS
 70
0
 62
7
  6
CONTINUOUS
370
-3
390
F
  0
LAYER
  5
20D
100
AcDbSymbolTableRecord
100
AcDbLayerTableRecord
  2
05__ASM_DEF_DTM_CSYS
 70
0
 62
7
  6
CONTINUOUS
370
-3
390
F
  0
LAYER
  5
20E
100
AcDbSymbolTableRecord
100
AcDbLayerTableRecord
  2
05___PRT_ALL_DTM_CSYS
 70
0
 62
7
  6
CONTINUOUS
370
-3
390
F
  0
LAYER
  5
20F
100
AcDbSymbolTableRecord
100
AcDbLayerTableRecord
  2
05___PRT_DEF_DTM_CSYS
 70
0
 62
7
  6
CONTINUOUS
370
-3
390
F
  0
LAYER
  5
210
100
AcDbSymbolTableRecord
100
AcDbLayerTableRecord
  2
06_ALL_SURFS
 70
0
 62
7
  6
CONTINUOUS
370
-3
390
F
  0
LAYER
  5
211
100
AcDbSymbolTableRecord
100
AcDbLayerTableRecord
  2
06__ASM_ALL_SURFS
 70
0
 62
7
  6
CONTINUOUS
370
-3
390
F
  0
LAYER
  5
212
100
AcDbSymbolTableRecord
100
AcDbLayerTableRecord
  2
06___PRT_ALL_SURFS
 70
0
 62
7
  6
CONTINUOUS
370
-3
390
F
  0
LAYER
  5
213
100
AcDbSymbolTableRecord
100
AcDbLayerTableRecord
  2
07__ASM_ALL_SKELETONS
 70
0
 62
7
  6
CONTINUOUS
370
-3
390
F
  0
ENDTAB
  0
TABLE
  2
STYLE
  5
3
100
AcDbSymbolTable
 70
1
  0
STYLE
  5
11
100
AcDbSymbolTableRecord
100
AcDbTextStyleTableRecord
  2
STANDARD
 70
0
 40
0.0
 41
0.75
 50
0.0
 71
0
 42
0.2
  3
txt
  4

  0
STYLE
  5
214
100
AcDbSymbolTableRecord
100
AcDbTextStyleTableRecord
  2
TEXTSTYLE_1
 70
0
 40
0.0
 41
0.8
 50
0.0
 71
0
 42
0.2
  3
gdt
  4

  0
STYLE
  5
215
100
AcDbSymbolTableRecord
100
AcDbTextStyleTableRecord
  2
TEXTSTYLE_2
 70
0
 40
0.0
 41
1.0
 50
0.0
 71
0
 42
0.2
  3
trium.ttf
  4

  0
STYLE
  5
216
100
AcDbSymbolTableRecord
100
AcDbTextStyleTableRecord
  2
TEXTSTYLE_3
 70
0
 40
0.0
 41
1.0
 50
0.0
 71
0
 42
0.2
  3
triumb.ttf
  4

  0
ENDTAB
  0
TABLE
  2
VIEW
  5
6
100
AcDbSymbolTable
 70
0
  0
ENDTAB
  0
TABLE
  2
UCS
  5
7
100
AcDbSymbolTable
 70
0
  0
ENDTAB
  0
TABLE
  2
APPID
  5
9
100
AcDbSymbolTable
 70
1
  0
APPID
  5
217
100
AcDbSymbolTableRecord
100
AcDbRegAppTableRecord
  2
ACAD
 70
0
  0
ENDTAB
  0
TABLE
  2
BLOCK_RECORD
  5
1
100
AcDbSymbolTable
 70
0
  0
BLOCK_RECORD
  5
218
100
AcDbSymbolTableRecord
100
AcDbBlockTableRecord
  2
*Model_Space
  0
BLOCK_RECORD
  5
219
100
AcDbSymbolTableRecord
100
AcDbBlockTableRecord
  2
*Paper_Space
  0
BLOCK_RECORD
  5
21A
100
AcDbSymbolTableRecord
100
AcDbBlockTableRecord
  2
_FILLED
  0
BLOCK_RECORD
  5
21B
100
AcDbSymbolTableRecord
100
AcDbBlockTableRecord
  2
_DOT
  0
BLOCK_RECORD
  5
21C
100
AcDbSymbolTableRecord
100
AcDbBlockTableRecord
  2
*D0
  0
BLOCK_RECORD
  5
21D
100
AcDbSymbolTableRecord
100
AcDbBlockTableRecord
  2
*D1
  0
BLOCK_RECORD
  5
21E
100
AcDbSymbolTableRecord
100
AcDbBlockTableRecord
  2
*D2
  0
BLOCK_RECORD
  5
21F
100
AcDbSymbolTableRecord
100
AcDbBlockTableRecord
  2
*D3
  0
ENDTAB
  0
TABLE
  2
DIMSTYLE
  5
A
100
AcDbSymbolTable
 70
1
100
AcDbDimStyleTable
 71
0
  0
DIMSTYLE
105
220
100
AcDbSymbolTableRecord
100
AcDbDimStyleTableRecord
  2
STANDARD
 70
0
  3

  4

 40
1.0
 41
0.125
 42
0.0625
 43
0.38
 44
0.06
 45
0.0
 46
0.0
 47
0.001
 48
0.001
140
0.125
141
0.09
142
0.0
143
25.4
144
1.0
145
0.0
146
1.0
147
0.09
 71
1.0
 72
0.0
 73
1
 74
1
 75
0
 76
0
 77
0
 78
4
170
0
171
2
172
0
173
0
174
0
175
0
176
0
177
0
178
0
270
2
271
3
272
3
273
2
274
2
275
0
280
0
281
0
282
0
283
1
284
4
285
0
286
0
287
3
288
0
340
11
278
46
341
21A
342
21A
343
21A
344
21A
  0
DIMSTYLE
105
221
100
AcDbSymbolTableRecord
100
AcDbDimStyleTableRecord
  2
DIMSTYLE_1
 70
0
  3

  4

 40
1.0
 41
0.125
 42
0.0625
 43
0.38
 44
0.06
 45
0.0
 46
0.0
 47
0.0254
 48
0.0254
140
0.187
141
0.09
142
0.0
143
25.4
144
2.0
145
0.0
146
1.0
147
0.0935
 71
0.0
 72
0.0
 73
1
 74
1
 75
0
 76
0
 77
0
 78
4
170
0
171
2
172
0
173
0
174
0
175
0
176
0
177
0
178
0
270
2
271
1
272
1
273
2
274
2
275
0
280
0
281
0
282
0
283
1
284
4
285
0
286
0
287
3
288
0
340
215
278
46
341
21A
342
21A
343
21A
344
21A
  0
DIMSTYLE
105
222
100
AcDbSymbolTableRecord
100
AcDbDimStyleTableRecord
  2
DIMSTYLE_2
 70
0
  3

  4

 40
1.0
 41
0.125
 42
0.0625
 43
0.38
 44
0.06
 45
0.0
 46
0.0
 47
0.001
 48
0.001
140
0.187
141
0.09
142
0.0
143
25.4
144
1.0
145
0.0
146
1.0
147
0.0935
 71
0.0
 72
0.0
 73
1
 74
1
 75
0
 76
0
 77
0
 78
4
170
0
171
2
172
0
173
0
174
0
175
0
176
0
177
0
178
0
270
2
271
1
272
1
273
2
274
2
275
0
280
0
281
0
282
0
283
1
284
4
285
0
286
0
287
3
288
0
340
215
278
46
341
21A
342
21A
343
21A
344
21A
  0
DIMSTYLE
105
223
100
AcDbSymbolTableRecord
100
AcDbDimStyleTableRecord
  2
DIMSTYLE_3
 70
0
  3
<>
  4

 40
1.0
 41
0.125
 42
0.0625
 43
0.38
 44
0.06
 45
0.0
 46
0.0
 47
0.001
 48
0.001
140
0.187
141
0.09
142
0.0
143
25.4
144
1.0
145
0.0
146
1.0
147
0.09
 71
0.0
 72
0.0
 73
1
 74
1
 75
0
 76
0
 77
0
 78
4
170
0
171
2
172
0
173
0
174
0
175
0
176
0
177
0
178
0
270
2
271
1
272
1
273
2
274
2
275
0
280
0
281
0
282
0
283
1
284
4
285
0
286
0
287
3
288
0
340
215
278
46
341
21A
342
21A
343
21A
344
21A
  0
ENDTAB
  0
ENDSEC
  0
SECTION
  2
BLOCKS
  0
BLOCK
  5
20
100
AcDbEntity
  8
0
100
AcDbBlockBegin
  2
*Model_Space
 70
0
 10
0.0
 20
0.0
 30
0.0
  3
*Model_Space
  1

  0
ENDBLK
  5
21
100
AcDbEntity
  8
0
100
AcDbBlockEnd
  0
BLOCK
  5
1C
100
AcDbEntity
  8
0
100
AcDbBlockBegin
  2
*Paper_Space
 70
0
 10
0.0
 20
0.0
 30
0.0
  3
*Paper_Space
  1

  0
ENDBLK
  5
1D
100
AcDbEntity
  8
0
100
AcDbBlockEnd
  0
BLOCK
  5
224
100
AcDbEntity
  8
0
100
AcDbBlockBegin
  2
_FILLED
 70
64
 10
0.0
 20
0.0
  3
_FILLED
  1

  0
SOLID
  5
225
100
AcDbEntity
  8
0
  6
BYBLOCK
 62
0
100
AcDbTrace
 10
0.0
 20
0.0
 11
-1.0
 21
0.16
 12
-1.0
 22
-0.16
 13
-1.0
 23
-0.16
  0
ENDBLK
  5
226
100
AcDbEntity
  8
0
  6
BYBLOCK
 62
0
100
AcDbBlockEnd
  0
BLOCK
  5
227
100
AcDbEntity
  8
0
100
AcDbBlockBegin
  2
_DOT
 70
64
 10
0.0
 20
0.0
  3
_DOT
  1

  0
LWPOLYLINE
  5
228
100
AcDbEntity
  8
0
  6
BYBLOCK
 62
0
100
AcDbPolyline
 90
2
 70
1
 43
0.16
 10
-0.08
 20
0.0
 42
1.0
 10
0.08
 20
0.0
 42
1.0
  0
LINE
  5
229
100
AcDbEntity
  8
0
  6
BYBLOCK
 62
0
100
AcDbLine
 10
-0.16
 20
0.0
 11
-1.0
 21
0.0
  0
ENDBLK
  5
22A
100
AcDbEntity
  8
0
  6
BYBLOCK
 62
0
100
AcDbBlockEnd
  0
BLOCK
  5
22B
100
AcDbEntity
  8
0
100
AcDbBlockBegin
 62
2
  6
CONTINUOUS
  2
*D0
 70
65
 10
0.0
 20
0.0
  3
*D0
  1

  0
MTEXT
  5
22C
100
AcDbEntity
  8
0
100
AcDbMText
 62
2
  6
CONTINUOUS
  7
TEXTSTYLE_2
 71
1
 72
1
 10
12.1075968214
 20
15.3438253738
 30
0.0
 11
1.0
 21
0.0
 31
0.0
 44
0.9
  1
20.0mm(.8")
 40
0.187
 41
1.4412851852
  0
LINE
  5
22D
100
AcDbEntity
  8
0
100
AcDbLine
 62
2
  6
CONTINUOUS
 10
11.5242556929
 20
14.4096756076
 11
11.5242556929
 21
15.3103253738
  0
LINE
  5
22E
100
AcDbEntity
  8
0
100
AcDbLine
 62
2
  6
CONTINUOUS
 10
11.1305549055
 20
14.4096756076
 11
11.1305549055
 21
15.3103253738
  0
LINE
  5
22F
100
AcDbEntity
  8
0
100
AcDbLine
 62
2
  6
CONTINUOUS
 10
11.5242556929
 20
15.2503253738
 11
11.3274052992
 21
15.2503253738
  0
LINE
  5
230
100
AcDbEntity
  8
0
100
AcDbLine
 62
2
  6
CONTINUOUS
 10
11.3274052992
 20
15.2503253738
 11
12.0140968214
 21
15.2503253738
  0
LINE
  5
231
100
AcDbEntity
  8
0
100
AcDbLine
 62
2
  6
CONTINUOUS
 10
11.1305549055
 20
15.2503253738
 11
11.3274052992
 21
15.2503253738
  0
INSERT
  5
232
100
AcDbEntity
  8
0
100
AcDbBlockReference
 62
2
  6
CONTINUOUS
  2
_FILLED
 10
11.5242556929
 20
15.2503253738
 41
0.125
 42
0.125
 43
0.125
  0
INSERT
  5
233
100
AcDbEntity
  8
0
100
AcDbBlockReference
 62
2
  6
CONTINUOUS
  2
_FILLED
 10
11.1305549055
 20
15.2503253738
 41
0.125
 42
0.125
 43
0.125
 50
180.0
  0
ENDBLK
  5
234
100
AcDbEntity
  8
0
  6
BYBLOCK
 62
0
100
AcDbBlockEnd
  0
BLOCK
  5
235
100
AcDbEntity
  8
0
100
AcDbBlockBegin
 62
2
  6
CONTINUOUS
  2
*D1
 70
65
 10
0.0
 20
0.0
  3
*D1
  1

  0
MTEXT
  5
236
100
AcDbEntity
  8
0
100
AcDbMText
 62
2
  6
CONTINUOUS
  7
TEXTSTYLE_2
 71
2
 72
1
 10
22.7523681083
 20
25.7079854649
 30
0.0
 11
1.0
 21
0.0
 31
0.0
 44
0.9
  1
792.0mm(32.2")\PUNDERMOUNT
 40
0.187
 41
1.8928555556
  0
LINE
  5
237
100
AcDbEntity
  8
0
100
AcDbLine
 62
2
  6
CONTINUOUS
 10
5.9596466082
 20
24.4707461897
 11
5.9596466082
 21
25.6744854649
  0
LINE
  5
238
100
AcDbEntity
  8
0
100
AcDbLine
 62
2
  6
CONTINUOUS
 10
37.1407489704
 20
24.4707461897
 11
37.1407489704
 21
25.6744854649
  0
LINE
  5
239
100
AcDbEntity
  8
0
100
AcDbLine
 62
2
  6
CONTINUOUS
 10
5.9596466082
 20
25.6144854649
 11
21.7231755157
 21
25.6144854649
  0
LINE
  5
23A
100
AcDbEntity
  8
0
100
AcDbLine
 62
2
  6
CONTINUOUS
 10
37.1407489704
 20
25.6144854649
 11
23.7815607008
 21
25.6144854649
  0
INSERT
  5
23B
100
AcDbEntity
  8
0
100
AcDbBlockReference
 62
2
  6
CONTINUOUS
  2
_FILLED
 10
5.9596466082
 20
25.6144854649
 41
0.125
 42
0.125
 43
0.125
 50
180.0
  0
INSERT
  5
23C
100
AcDbEntity
  8
0
100
AcDbBlockReference
 62
2
  6
CONTINUOUS
  2
_FILLED
 10
37.1407489704
 20
25.6144854649
 41
0.125
 42
0.125
 43
0.125
  0
ENDBLK
  5
23D
100
AcDbEntity
  8
0
  6
BYBLOCK
 62
0
100
AcDbBlockEnd
  0
BLOCK
  5
23E
100
AcDbEntity
  8
0
100
AcDbBlockBegin
 62
2
  6
CONTINUOUS
  2
*D2
 70
65
 10
0.0
 20
0.0
  3
*D2
  1

  0
MTEXT
  5
23F
100
AcDbEntity
  8
0
100
AcDbMText
 62
2
  6
CONTINUOUS
  7
TEXTSTYLE_2
 71
2
 72
1
 10
30.0268885664
 20
16.5096202055
 30
0.0
 11
1.0
 21
0.0
 31
0.0
 44
0.9
  1
416.0mm(16.4")\PUNDERMOUNT
 40
0.187
 41
1.8928555556
  0
LINE
  5
240
100
AcDbEntity
  8
0
100
AcDbLine
 62
2
  6
CONTINUOUS
 10
30.0268885664
 20
24.6050965834
 11
30.0268885664
 21
16.6031202055
  0
LINE
  5
241
100
AcDbEntity
  8
0
100
AcDbLine
 62
2
  6
CONTINUOUS
 10
30.0268885664
 20
8.2271438275
 11
30.0268885664
 21
15.9486202055
  0
INSERT
  5
242
100
AcDbEntity
  8
0
100
AcDbBlockReference
 62
2
  6
CONTINUOUS
  2
_FILLED
 10
30.0268885664
 20
24.6050965834
 41
0.125
 42
0.125
 43
0.125
 50
90.0
  0
INSERT
  5
243
100
AcDbEntity
  8
0
100
AcDbBlockReference
 62
2
  6
CONTINUOUS
  2
_FILLED
 10
30.0268885664
 20
8.2271438275
 41
0.125
 42
0.125
 43
0.125
 50
270.0
  0
ENDBLK
  5
244
100
AcDbEntity
  8
0
  6
BYBLOCK
 62
0
100
AcDbBlockEnd
  0
BLOCK
  5
245
100
AcDbEntity
  8
0
100
AcDbBlockBegin
 62
2
  6
CONTINUOUS
  2
*D3
 70
65
 10
0.0
 20
0.0
  3
*D3
  1

  0
MTEXT
  5
246
100
AcDbEntity
  8
0
100
AcDbMText
 62
2
  6
CONTINUOUS
  7
TEXTSTYLE_2
 71
3
 72
1
 10
34.9303738484
 20
23.4324201795
 30
0.0
 11
1.0
 21
0.0
 31
0.0
 44
0.9
  1
R5.0mm(0.2")\PUNDERMOUNT
 40
0.187
 41
1.8928555556
  0
LINE
  5
247
100
AcDbEntity
  8
0
100
AcDbLine
 62
2
  6
CONTINUOUS
 10
36.7755746835
 20
24.3061817762
 11
35.1803738484
 21
23.3389201795
  0
LINE
  5
248
100
AcDbEntity
  8
0
100
AcDbLine
 62
2
  6
CONTINUOUS
 10
35.1803738484
 20
23.3389201795
 11
35.0238738484
 21
23.3389201795
  0
INSERT
  5
249
100
AcDbEntity
  8
0
100
AcDbBlockReference
 62
2
  6
CONTINUOUS
  2
_FILLED
 10
36.7755746835
 20
24.3061817762
 41
0.125
 42
0.125
 43
0.125
 50
31.2308318428
  0
ENDBLK
  5
24A
100
AcDbEntity
  8
0
  6
BYBLOCK
 62
0
100
AcDbBlockEnd
  0
ENDSEC
  0
SECTION
  2
ENTITIES
  0
HATCH
  5
24B
100
AcDbEntity
  8
0
100
AcDbHatch
 62
2
  6
CONTINUOUS
 10
0.0
 20
0.0
 30
0.0
210
0.0
220
0.0
230
1.0
  2
default__1
 70
0
 71
0
 91
1
 92
1
 93
20
 72
4
 94
3
 73
0
 74
0
 95
11
 96
7
 40
0.0
 40
0.0
 40
0.0
 40
0.0
 40
0.25
 40
0.5
 40
0.75
 40
1.0
 40
1.0
 40
1.0
 40
1.0
 10
18.4331444837
 20
14.1317983031
 10
18.4185246082
 20
14.131954575
 10
18.3912561469
 20
14.1368123875
 10
18.3541226465
 20
14.1586619814
 10
18.3271923711
 20
14.1922932447
 10
18.3184888892
 20
14.2185880489
 10
18.3162456665
 20
14.2330356485
 97
0
 72
4
 94
3
 73
0
 74
0
 95
10
 96
6
 40
0.0
 40
0.0
 40
0.0
 40
0.0
 40
0.3333333333
 40
0.6666666667
 40
1.0
 40
1.0
 40
1.0
 40
1.0
 10
18.3162456665
 20
14.2330356485
 10
18.3156884551
 20
14.2363293725
 10
18.313490769
 20
14.2419808442
 10
18.3060095348
 20
14.248459783
 10
18.3001020734
 20
14.249827575
 10
18.2967625303
 20
14.2499085394
 97
0
 72
1
 10
18.2967625303
 20
14.2499085394
 11
17.1467473781
 21
14.2499085394
 72
4
 94
3
 73
0
 74
0
 95
10
 96
6
 40
0.0
 40
0.0
 40
0.0
 40
0.0
 40
0.3333333333
 40
0.6666666667
 40
1.0
 40
1.0
 40
1.0
 40
1.0
 10
17.1467473781
 20
14.2499085394
 10
17.1431673571
 20
14.2498053883
 10
17.1369245614
 20
14.2482734124
 10
17.1292362889
 20
14.2409775142
 10
17.1273796898
 20
14.2348234515
 10
17.1270893164
 20
14.2312537353
 97
0
 72
1
 10
17.1270893164
 20
14.2312537353
 11
17.1166108473
 21
14.0313126356
 72
4
 94
3
 73
0
 74
0
 95
10
 96
6
 40
0.0
 40
0.0
 40
0.0
 40
0.0
 40
0.3333333333
 40
0.6666666667
 40
1.0
 40
1.0
 40
1.0
 40
1.0
 10
17.1166108473
 20
14.0313126356
 10
17.1160301004
 20
14.0241732033
 10
17.1123169022
 20
14.0118650778
 10
17.0969403572
 20
13.9972732814
 10
17.0844547658
 20
13.9942093296
 10
17.0772947239
 20
13.9940030275
 97
0
 72
1
 10
17.0772947239
 20
13.9940030275
 11
16.9965452974
 21
13.9940030275
 72
1
 10
16.9965452974
 20
13.9940030275
 11
16.9965452974
 21
14.2499085394
 72
4
 94
3
 73
0
 74
0
 95
12
 96
8
 40
0.0
 40
0.0
 40
0.0
 40
0.0
 40
0.2
 40
0.4
 40
0.6
 40
0.8
 40
1.0
 40
1.0
 40
1.0
 40
1.0
 10
16.9965452974
 20
14.2499085394
 10
16.996639607
 20
14.2626700103
 10
17.0004154932
 20
14.2868283206
 10
17.0175425064
 20
14.3205355197
 10
17.0440285533
 20
14.3470215666
 10
17.0777357524
 20
14.3641485798
 10
17.1018940627
 20
14.3679244659
 10
17.1146555336
 20
14.3680187756
 97
0
 72
1
 10
17.1146555336
 20
14.3680187756
 11
18.3909320811
 21
14.3680187756
 72
4
 94
3
 73
0
 74
0
 95
11
 96
7
 40
0.0
 40
0.0
 40
0.0
 40
0.0
 40
0.25
 40
0.5
 40
0.75
 40
1.0
 40
1.0
 40
1.0
 40
1.0
 10
18.3909320811
 20
14.3680187756
 10
18.4026524726
 20
14.3679503001
 10
18.4250238851
 20
14.3647112557
 10
18.4565511646
 20
14.3501433451
 10
18.482513787
 20
14.3270752804
 10
18.4944309852
 20
14.30786716
 10
18.4991819006
 20
14.2971526338
 97
0
 72
4
 94
3
 73
0
 74
0
 95
10
 96
6
 40
0.0
 40
0.0
 40
0.0
 40
0.0
 40
0.3333333333
 40
0.6666666667
 40
1.0
 40
1.0
 40
1.0
 40
1.0
 10
18.4991819006
 20
14.2971526338
 10
18.5035612166
 20
14.2874751406
 10
18.5147736118
 20
14.2710541608
 10
18.5411921169
 20
14.2537591895
 10
18.5607271516
 20
14.2500512514
 10
18.571348447
 20
14.2499085394
 97
0
 72
1
 10
18.571348447
 20
14.2499085394
 11
18.8920910913
 21
14.2499085394
 72
4
 94
3
 73
0
 74
0
 95
12
 96
8
 40
0.0
 40
0.0
 40
0.0
 40
0.0
 40
0.2
 40
0.4
 40
0.6
 40
0.8
 40
1.0
 40
1.0
 40
1.0
 40
1.0
 10
18.8920910913
 20
14.2499085394
 10
18.9167150914
 20
14.2497436616
 10
18.9634920853
 20
14.2426739217
 10
19.0290889558
 20
14.2106207904
 10
19.0815840111
 20
14.1608048429
 10
19.1170262897
 20
14.096975402
 10
19.1265344594
 20
14.0506325159
 10
19.1279878318
 20
14.0260508912
 97
0
 72
1
 10
19.1279878318
 20
14.0260508912
 11
19.1738065407
 21
13.1517778436
 72
4
 94
3
 73
0
 74
0
 95
9
 96
5
 40
0.0
 40
0.0
 40
0.0
 40
0.0
 40
0.5
 40
1.0
 40
1.0
 40
1.0
 40
1.0
 10
19.1738065407
 20
13.1517778436
 10
19.1749333482
 20
13.1321493902
 10
19.1806914002
 20
13.0941110139
 10
19.1934583263
 20
13.0585096988
 10
19.2015940078
 20
13.0413183066
 97
0
 72
4
 94
3
 73
0
 74
0
 95
9
 96
5
 40
0.0
 40
0.0
 40
0.0
 40
0.0
 40
0.5
 40
1.0
 40
1.0
 40
1.0
 40
1.0
 10
19.2015940078
 20
13.0413183066
 10
19.1775216004
 20
13.0378148203
 10
19.1280056836
 20
13.0315790834
 10
19.0757475626
 20
13.026885818
 10
19.0489329511
 20
13.0249248032
 97
0
 72
1
 10
19.0489329511
 20
13.0249248032
 11
18.9967901101
 21
14.0198694791
 72
4
 94
3
 73
0
 74
0
 95
11
 96
7
 40
0.0
 40
0.0
 40
0.0
 40
0.0
 40
0.25
 40
0.5
 40
0.75
 40
1.0
 40
1.0
 40
1.0
 40
1.0
 10
18.9967901101
 20
14.0198694791
 10
18.9957729746
 20
14.0354650836
 10
18.9887946376
 20
14.0640328466
 10
18.9621757742
 20
14.1015038161
 10
18.9233630337
 20
14.1261251202
 10
18.8944692039
 20
14.1315987724
 10
18.8788417398
 20
14.1317983031
 97
0
 72
1
 10
18.8788417398
 20
14.1317983031
 11
18.4331444837
 21
14.1317983031
 97
0
 75
0
 76
0
 52
135.0
 41
0.0238682445
 77
0
 78
1
 53
135.0
 43
0.0
 44
0.0
 45
-0.0168773975
 46
-0.0168773975
 79
0
 98
1
 10
0.0
 20
0.0
  0
HATCH
  5
24C
100
AcDbEntity
  8
0
100
AcDbHatch
 62
2
  6
CONTINUOUS
 10
0.0
 20
0.0
 30
0.0
210
0.0
220
0.0
230
1.0
  2
default__2
 70
0
 71
0
 91
1
 92
1
 93
8
 72
4
 94
3
 73
0
 74
0
 95
11
 96
7
 40
0.0
 40
0.0
 40
0.0
 40
0.0
 40
0.25
 40
0.5
 40
0.75
 40
1.0
 40
1.0
 40
1.0
 40
1.0
 10
11.1305549055
 20
14.3471756076
 10
11.130592926
 20
14.3498777957
 10
11.131566708
 20
14.3548478292
 10
11.1359471722
 20
14.3614683802
 10
11.1425677232
 20
14.3658488444
 10
11.1475377567
 20
14.3668226264
 10
11.1502399448
 20
14.3668606469
 97
0
 72
1
 10
11.1502399448
 20
14.3668606469
 11
11.5045706535
 21
14.3668606469
 72
4
 94
3
 73
0
 74
0
 95
11
 96
7
 40
0.0
 40
0.0
 40
0.0
 40
0.0
 40
0.25
 40
0.5
 40
0.75
 40
1.0
 40
1.0
 40
1.0
 40
1.0
 10
11.5045706535
 20
14.3668606469
 10
11.5072728416
 20
14.3668226264
 10
11.5122428751
 20
14.3658488444
 10
11.5188634261
 20
14.3614683802
 10
11.5232438903
 20
14.3548478292
 10
11.5242176724
 20
14.3498777957
 10
11.5242556929
 20
14.3471756076
 97
0
 72
1
 10
11.5242556929
 20
14.3471756076
 11
11.5242556929
 21
14.2684354501
 72
4
 94
3
 73
0
 74
0
 95
11
 96
7
 40
0.0
 40
0.0
 40
0.0
 40
0.0
 40
0.25
 40
0.5
 40
0.75
 40
1.0
 40
1.0
 40
1.0
 40
1.0
 10
11.5242556929
 20
14.2684354501
 10
11.5242176724
 20
14.2657332619
 10
11.5232438903
 20
14.2607632285
 10
11.5188634261
 20
14.2541426775
 10
11.5122428751
 20
14.2497622133
 10
11.5072728416
 20
14.2487884312
 10
11.5045706535
 20
14.2487504107
 97
0
 72
1
 10
11.5045706535
 20
14.2487504107
 11
11.1502399448
 21
14.2487504107
 72
4
 94
3
 73
0
 74
0
 95
11
 96
7
 40
0.0
 40
0.0
 40
0.0
 40
0.0
 40
0.25
 40
0.5
 40
0.75
 40
1.0
 40
1.0
 40
1.0
 40
1.0
 10
11.1502399448
 20
14.2487504107
 10
11.1475377567
 20
14.2487884312
 10
11.1425677232
 20
14.2497622133
 10
11.1359471722
 20
14.2541426775
 10
11.131566708
 20
14.2607632285
 10
11.130592926
 20
14.2657332619
 10
11.1305549055
 20
14.2684354501
 97
0
 72
1
 10
11.1305549055
 20
14.2684354501
 11
11.1305549055
 21
14.3471756076
 97
0
 75
0
 76
0
 52
205.0
 41
0.0083833713
 77
0
 78
1
 53
205.0
 43
0.0
 44
0.0
 45
0.0035429658
 46
-0.0075979147
 79
0
 98
1
 10
0.0
 20
0.0
  0
HATCH
  5
24D
100
AcDbEntity
  8
0
100
AcDbHatch
 62
2
  6
CONTINUOUS
 10
0.0
 20
0.0
 30
0.0
210
0.0
220
0.0
230
1.0
  2
default__4
 70
0
 71
0
 91
1
 92
1
 93
12
 72
4
 94
3
 73
0
 74
0
 95
11
 96
7
 40
0.0
 40
0.0
 40
0.0
 40
0.0
 40
0.25
 40
0.5
 40
0.75
 40
1.0
 40
1.0
 40
1.0
 40
1.0
 10
11.8119020803
 20
14.0187113504
 10
11.8108849448
 20
14.034306955
 10
11.8039066079
 20
14.0628747179
 10
11.7772877445
 20
14.1003456875
 10
11.7384750039
 20
14.1249669916
 10
11.7095811742
 20
14.1304406438
 10
11.6939537101
 20
14.1306401745
 97
0
 72
1
 10
11.6939537101
 20
14.1306401745
 11
11.3149418042
 21
14.1306401745
 72
1
 10
11.3149418042
 20
14.1306401745
 11
11.3096755735
 21
14.0301545069
 72
4
 94
3
 73
0
 74
0
 95
10
 96
6
 40
0.0
 40
0.0
 40
0.0
 40
0.0
 40
0.3333333333
 40
0.6666666667
 40
1.0
 40
1.0
 40
1.0
 40
1.0
 10
11.3096755735
 20
14.0301545069
 10
11.3090948265
 20
14.0230150746
 10
11.3053816284
 20
14.0107069492
 10
11.2900050833
 20
13.9961151528
 10
11.277519492
 20
13.993051201
 10
11.2703594501
 20
13.9928448989
 97
0
 72
1
 10
11.2703594501
 20
13.9928448989
 11
11.1305549055
 21
13.9928448989
 72
1
 10
11.1305549055
 20
13.9928448989
 11
11.1305549055
 21
14.1896952926
 72
4
 94
3
 73
0
 74
0
 95
11
 96
7
 40
0.0
 40
0.0
 40
0.0
 40
0.0
 40
0.25
 40
0.5
 40
0.75
 40
1.0
 40
1.0
 40
1.0
 40
1.0
 10
11.1305549055
 20
14.1896952926
 10
11.130668967
 20
14.1978018571
 10
11.1335903131
 20
14.2127119575
 10
11.1467317057
 20
14.2325736105
 10
11.1665933586
 20
14.2457150031
 10
11.1815034591
 20
14.2486363492
 10
11.1896100236
 20
14.2487504107
 97
0
 72
1
 10
11.1896100236
 20
14.2487504107
 11
11.7072030616
 21
14.2487504107
 72
4
 94
3
 73
0
 74
0
 95
12
 96
8
 40
0.0
 40
0.0
 40
0.0
 40
0.0
 40
0.2
 40
0.4
 40
0.6
 40
0.8
 40
1.0
 40
1.0
 40
1.0
 40
1.0
 10
11.7072030616
 20
14.2487504107
 10
11.7318270616
 20
14.248585533
 10
11.7786040555
 20
14.2415157931
 10
11.844200926
 20
14.2094626618
 10
11.8966959814
 20
14.1596467143
 10
11.9321382599
 20
14.0958172733
 10
11.9416464297
 20
14.0494743873
 10
11.9430998021
 20
14.0248927626
 97
0
 72
1
 10
11.9430998021
 20
14.0248927626
 11
12.0045196959
 21
12.852931372
 72
2
 10
13.5613163835
 20
24.3458864893
 40
11.5979150391
 50
261.6247618401
 51
262.2858604787
 73
1
 72
1
 10
11.8720165533
 20
12.8716588753
 11
11.8119020803
 21
14.0187113504
 97
0
 75
0
 76
0
 52
135.0
 41
0.0233687896
 77
0
 78
1
 53
135.0
 43
0.0
 44
0.0
 45
-0.0165242296
 46
-0.0165242296
 79
0
 98
1
 10
0.0
 20
0.0
  0
DIMENSION
  5
24E
100
AcDbEntity
  8
0
100
AcDbDimension
 62
2
  6
CONTINUOUS
  2
*D0
 10
11.1305549055
 20
15.2503253738
 11
12.828239414
 21
15.2503253738
 70
160
 71
1
 42
20.0
  1
<>mm(.8")
  3
DIMSTYLE_1
100
AcDbAlignedDimension
 13
11.5242556929
 23
14.3471756076
 14
11.1305549055
 24
14.3471756076
 50
180.0
100
AcDbRotatedDimension
  0
DIMENSION
  5
24F
100
AcDbEntity
  8
0
100
AcDbDimension
 62
2
  6
CONTINUOUS
  2
*D1
 10
37.1407489704
 20
25.6144854649
 11
22.7523681083
 21
25.4742354649
 70
160
 71
2
 42
792.0
  1
<>mm(32.2")\PUNDERMOUNT
  3
DIMSTYLE_2
100
AcDbAlignedDimension
 13
5.9596466082
 23
24.4082461897
 14
37.1407489704
 24
24.4082461897
100
AcDbRotatedDimension
  0
DIMENSION
  5
250
100
AcDbEntity
  8
0
100
AcDbDimension
 62
2
  6
CONTINUOUS
  2
*D2
 10
30.0268885664
 20
8.2271438275
 11
30.0268885664
 21
16.2758702055
 70
160
 71
2
 42
416.0
  1
<>mm(16.4")\PUNDERMOUNT
  3
DIMSTYLE_2
100
AcDbAlignedDimension
 13
36.9438985767
 23
24.6050965834
 14
36.9438985767
 24
8.2271438275
 50
270.0
100
AcDbRotatedDimension
  0
DIMENSION
  5
251
100
AcDbEntity
  8
0
100
AcDbDimension
 62
2
  6
CONTINUOUS
  2
*D3
 10
36.9438985767
 20
24.4082461897
 11
33.9839460706
 21
23.1986701795
 70
164
 71
3
 42
5.0
  1
R<>mm(0.2")\PUNDERMOUNT
  3
DIMSTYLE_3
100
AcDbRadialDimension
 15
36.7755746835
 25
24.3061817762
  0
MTEXT
  5
252
100
AcDbEntity
  8
0
100
AcDbMText
 62
2
  6
CONTINUOUS
  7
TEXTSTYLE_3
 71
1
 72
1
 10
8.3531384934
 20
17.0467805103
 30
0.0
 11
1.0
 21
0.0
 31
0.0
 44
0.9
  1
NOTE:  Cutout template is provided as a\Pguide ONLY and must be checked against\Pactual sink to verify correct fit.
 40
0.25
 41
7.0407407407
  0
MTEXT
  5
253
100
AcDbEntity
  8
0
100
AcDbMText
 62
2
  6
CONTINUOUS
  7
TEXTSTYLE_3
 71
1
 72
1
 10
8.2543962912
 20
18.3108000854
 30
0.0
 11
1.0
 21
0.0
 31
0.0
 44
0.9
  1
Model No. 1618\P\H0.25;Customer Service:  877-565-2221\H0.125; \Ftrium.ttf; 
 40
0.5
 41
5.6388888889
  0
MTEXT
  5
254
100
AcDbEntity
  8
0
100
AcDbMText
 62
2
  6
CONTINUOUS
  7
TEXTSTYLE_3
 71
1
 72
1
 10
8.2972329995
 20
19.7496795322
 30
0.0
 11
1.0
 21
0.0
 31
0.0
 44
0.9
  1
www.bocchiusa.com
 40
0.5
 41
6.937037037
  0
MTEXT
  5
255
100
AcDbEntity
  8
0
100
AcDbMText
 62
2
  6
CONTINUOUS
  7
TEXTSTYLE_3
 71
1
 72
1
 10
8.6568033716
 20
10.3255909803
 30
0.0
 11
1.0
 21
0.0
 31
0.0
 44
0.9
  1
Undermount\PSink to be flush to counter cutout.
 40
0.187
 41
4.3280111111
  0
MTEXT
  5
256
100
AcDbEntity
  8
0
100
AcDbMText
 62
2
  6
CONTINUOUS
  7
TEXTSTYLE_3
 71
1
 72
1
 10
10.5761191471
 20
11.8512737111
 30
0.0
 11
1.0
 21
0.0
 31
0.0
 44
0.9
  1
LEFT and RIGHT SIDE VIEW
 40
0.187
 41
3.5412259259
  0
MTEXT
  5
257
100
AcDbEntity
  8
0
100
AcDbMText
 62
2
  6
CONTINUOUS
  7
TEXTSTYLE_3
 71
1
 72
1
 10
16.9133724254
 20
11.8297184278
 30
0.0
 11
1.0
 21
0.0
 31
0.0
 44
0.9
  1
FRONT and BACK VIEW
 40
0.187
 41
3.0190111111
  0
MTEXT
  5
258
100
AcDbEntity
  8
0
100
AcDbMText
 62
2
  6
CONTINUOUS
  7
TEXTSTYLE_3
 71
1
 72
1
 10
39.9394261497
 20
1.1314359192
 30
0.0
 11
1.0
 21
0.0
 31
0.0
 44
0.9
  1
11/09/22\P05/24/23
 40
0.25
 41
1.4203703704
  0
LEADER
  5
259
100
AcDbEntity
  8
0
100
AcDbLeader
 62
2
  6
CONTINUOUS
  3
STANDARD
 71
1
 72
0
 73
0
 75
0
 40
0.187
 41
0.9003703704
 76
3
 10
11.2337643969
 20
14.3165627184
 30
0.0
 10
10.1813988552
 20
13.5824383027
 30
0.0
 10
9.9313988552
 20
13.5824383027
 30
0.0
340
25A
1001
ACAD
1000
DSTYLE
1002
{
1070
77
1070
0
1070
341
1005
21B
1002
}
  0
MTEXT
  5
25A
102
{ACAD_REACTORS
330
259
102
}
100
AcDbEntity
  8
0
100
AcDbMText
 62
2
  6
CONTINUOUS
  7
TEXTSTYLE_3
 71
3
 72
1
 10
9.9313988552
 20
13.6759383027
 30
0.0
 11
1.0
 21
0.0
 31
0.0
 44
0.9
  1
FILLER
 40
0.187
 41
0.9003703704
  0
LINE
  5
25B
100
AcDbEntity
  8
0
100
AcDbLine
 62
7
  6
CONTINUOUS
 10
0.0
 20
0.0
 11
0.0
 21
34.0
  0
LINE
  5
25C
100
AcDbEntity
  8
0
100
AcDbLine
 62
7
  6
CONTINUOUS
 10
0.0
 20
0.0
 11
44.0
 21
0.0
  0
LINE
  5
25D
100
AcDbEntity
  8
0
100
AcDbLine
 62
7
  6
CONTINUOUS
 10
10.6690563174
 20
14.3565148127
 11
10.6690563174
 21
12.3810162125
  0
LINE
  5
25E
100
AcDbEntity
  8
0
100
AcDbLine
 62
7
  6
CONTINUOUS
 10
11.0332543834
 20
14.3565148127
 11
11.0332543834
 21
12.4361977377
  0
LINE
  5
25F
100
AcDbEntity
  8
0
100
AcDbLine
 62
7
  6
CONTINUOUS
 10
16.8604234387
 20
14.3675511178
 11
16.8714597437
 21
12.9659403791
  0
LINE
  5
260
100
AcDbEntity
  8
0
100
AcDbLine
 62
7
  6
CONTINUOUS
 10
16.4962253727
 20
14.3675511178
 11
16.4933740736
 21
12.9649160238
  0
LINE
  5
261
100
AcDbEntity
  8
0
100
AcDbLine
 62
7
  6
CONTINUOUS
 10
0.0
 20
34.0
 11
44.0
 21
34.0
  0
LINE
  5
262
100
AcDbEntity
  8
0
100
AcDbLine
 62
7
  6
CONTINUOUS
 10
44.0
 20
0.0
 11
44.0
 21
34.0
  0
LINE
  5
263
100
AcDbEntity
  8
0
100
AcDbLine
 62
7
  6
CONTINUOUS
 10
5.9596466082
 20
24.4082461897
 11
5.9596466082
 21
8.4239942212
  0
LINE
  5
264
100
AcDbEntity
  8
0
100
AcDbLine
 62
7
  6
CONTINUOUS
 10
6.1564970019
 20
8.2271438275
 11
36.9438985767
 21
8.2271438275
  0
LINE
  5
265
100
AcDbEntity
  8
0
100
AcDbLine
 62
7
  6
CONTINUOUS
 10
36.9438985767
 20
24.6050965834
 11
6.1564970019
 21
24.6050965834
  0
LINE
  5
266
100
AcDbEntity
  8
0
100
AcDbLine
 62
7
  6
CONTINUOUS
 10
37.1407489704
 20
8.4239942212
 11
37.1407489704
 21
24.4082461897
  0
LINE
  5
267
100
AcDbEntity
  8
0
100
AcDbLine
 62
7
  6
CONTINUOUS
 10
8.1132187908
 20
22.012067991
 11
8.1132187908
 21
20.3587150061
  0
LINE
  5
268
100
AcDbEntity
  8
0
100
AcDbLine
 62
7
  6
CONTINUOUS
 10
8.5628920524
 20
21.3602599979
 11
8.5583676411
 21
21.6600421724
  0
LINE
  5
269
100
AcDbEntity
  8
0
100
AcDbLine
 62
7
  6
CONTINUOUS
 10
8.5583676411
 20
20.7107142105
 11
8.5583676411
 21
21.0445625411
  0
LINE
  5
26A
100
AcDbEntity
  8
0
100
AcDbLine
 62
7
  6
CONTINUOUS
 10
9.0534447015
 20
21.5396662158
 11
9.0534447015
 21
21.4692716977
  0
LINE
  5
26B
100
AcDbEntity
  8
0
100
AcDbLine
 62
7
  6
CONTINUOUS
 10
9.1204592181
 20
20.9196887874
 11
9.1204592181
 21
20.8277101657
  0
LINE
  5
26C
100
AcDbEntity
  8
0
100
AcDbLine
 62
7
  6
CONTINUOUS
 10
9.2941966147
 20
21.189929217
 11
9.2941966147
 21
21.2739501975
  0
LINE
  5
26D
100
AcDbEntity
  8
0
100
AcDbLine
 62
7
  6
CONTINUOUS
 10
9.5008557575
 20
21.5510304726
 11
9.5008557575
 21
21.6532289411
  0
LINE
  5
26E
100
AcDbEntity
  8
0
100
AcDbLine
 62
7
  6
CONTINUOUS
 10
9.5485483761
 20
20.6789368742
 11
9.5485483761
 21
20.9605681748
  0
LINE
  5
26F
100
AcDbEntity
  8
0
100
AcDbLine
 62
7
  6
CONTINUOUS
 10
9.4713406268
 20
21.430654516
 11
9.5008557575
 21
21.5510304726
  0
LINE
  5
270
100
AcDbEntity
  8
0
100
AcDbLine
 62
7
  6
CONTINUOUS
 10
9.0534447015
 20
21.4692716977
 11
9.0171163396
 21
21.4147658478
  0
LINE
  5
271
100
AcDbEntity
  8
0
100
AcDbLine
 62
7
  6
CONTINUOUS
 10
9.0738843952
 20
21.0082607935
 11
9.1204592181
 21
20.9196887874
  0
LINE
  5
272
100
AcDbEntity
  8
0
100
AcDbLine
 62
7
  6
CONTINUOUS
 10
9.7552075189
 20
21.5192265221
 11
9.7256923883
 21
21.2285463987
  0
LINE
  5
273
100
AcDbEntity
  8
0
100
AcDbLine
 62
7
  6
CONTINUOUS
 10
9.8528815761
 20
21.725912279
 11
9.7552075189
 21
21.5192265221
  0
LINE
  5
274
100
AcDbEntity
  8
0
100
AcDbLine
 62
7
  6
CONTINUOUS
 10
9.5485483761
 20
20.9605681748
 11
9.4599763701
 21
21.1081704421
  0
LINE
  5
275
100
AcDbEntity
  8
0
100
AcDbLine
 62
7
  6
CONTINUOUS
 10
9.019652243
 20
21.6016190564
 11
9.0534447015
 21
21.5396662158
  0
LINE
  5
276
100
AcDbEntity
  8
0
100
AcDbLine
 62
7
  6
CONTINUOUS
 10
9.7552075189
 20
20.9628037663
 11
9.8574059875
 21
20.7425447752
  0
LINE
  5
277
100
AcDbEntity
  8
0
100
AcDbLine
 62
7
  6
CONTINUOUS
 10
9.5008557575
 20
21.6532289411
 11
9.4463499076
 21
21.7940445914
  0
LINE
  5
278
100
AcDbEntity
  8
0
100
AcDbLine
 62
7
  6
CONTINUOUS
 10
9.7256923883
 20
21.2285463987
 11
9.7552075189
 21
20.9628037663
  0
LINE
  5
279
100
AcDbEntity
  8
0
100
AcDbLine
 62
7
  6
CONTINUOUS
 10
10.1980675493
 20
21.0377493099
 11
10.1980675493
 21
21.4215790791
  0
LINE
  5
27A
100
AcDbEntity
  8
0
100
AcDbLine
 62
7
  6
CONTINUOUS
 10
9.3998016989
 20
21.3409647141
 11
9.4713406268
 21
21.430654516
  0
LINE
  5
27B
100
AcDbEntity
  8
0
100
AcDbLine
 62
7
  6
CONTINUOUS
 10
10.1980675493
 20
21.4215790791
 11
10.245760168
 21
21.5010756482
  0
LINE
  5
27C
100
AcDbEntity
  8
0
100
AcDbLine
 62
7
  6
CONTINUOUS
 10
9.4349856508
 20
20.5267569671
 11
9.5485483761
 21
20.6789368742
  0
LINE
  5
27D
100
AcDbEntity
  8
0
100
AcDbLine
 62
7
  6
CONTINUOUS
 10
10.0186613315
 20
21.9075807026
 11
9.8528815761
 21
21.725912279
  0
LINE
  5
27E
100
AcDbEntity
  8
0
100
AcDbLine
 62
7
  6
CONTINUOUS
 10
9.1204592181
 20
20.8277101657
 11
9.0579957271
 21
20.7652200604
  0
LINE
  5
27F
100
AcDbEntity
  8
0
100
AcDbLine
 62
7
  6
CONTINUOUS
 10
10.1322240568
 20
22.0052547598
 11
10.0186613315
 21
21.9075807026
  0
LINE
  5
280
100
AcDbEntity
  8
0
100
AcDbLine
 62
7
  6
CONTINUOUS
 10
9.0171163396
 20
21.4147658478
 11
8.9330953591
 21
21.3602599979
  0
LINE
  5
281
100
AcDbEntity
  8
0
100
AcDbLine
 62
7
  6
CONTINUOUS
 10
9.9652998915
 20
20.6346508712
 11
10.1185975944
 21
20.4972684507
  0
LINE
  5
282
100
AcDbEntity
  8
0
100
AcDbLine
 62
7
  6
CONTINUOUS
 10
9.8574059875
 20
20.7425447752
 11
9.9652998915
 21
20.6346508712
  0
LINE
  5
283
100
AcDbEntity
  8
0
100
AcDbLine
 62
7
  6
CONTINUOUS
 10
9.4463499076
 20
21.7940445914
 11
9.3305249765
 21
21.9371224474
  0
LINE
  5
284
100
AcDbEntity
  8
0
100
AcDbLine
 62
7
  6
CONTINUOUS
 10
10.2548622191
 20
20.9242131987
 11
10.1980675493
 21
21.0377493099
  0
LINE
  5
285
100
AcDbEntity
  8
0
100
AcDbLine
 62
7
  6
CONTINUOUS
 10
10.245760168
 20
21.5010756482
 11
10.3161813002
 21
21.5873588344
  0
LINE
  5
286
100
AcDbEntity
  8
0
100
AcDbLine
 62
7
  6
CONTINUOUS
 10
9.2941966147
 20
21.2739501975
 11
9.3998016989
 21
21.3409647141
  0
LINE
  5
287
100
AcDbEntity
  8
0
100
AcDbLine
 62
7
  6
CONTINUOUS
 10
10.3502474564
 20
20.8288279614
 11
10.2548622191
 21
20.9242131987
  0
LINE
  5
288
100
AcDbEntity
  8
0
100
AcDbLine
 62
7
  6
CONTINUOUS
 10
11.0111308864
 20
21.3012031225
 11
11.0111308864
 21
21.1603874722
  0
LINE
  5
289
100
AcDbEntity
  8
0
100
AcDbLine
 62
7
  6
CONTINUOUS
 10
11.0111308864
 20
21.1603874722
 11
10.9906911927
 21
21.0355137184
  0
LINE
  5
28A
100
AcDbEntity
  8
0
100
AcDbLine
 62
7
  6
CONTINUOUS
 10
9.3032720516
 20
20.413220856
 11
9.4349856508
 21
20.5267569671
  0
LINE
  5
28B
100
AcDbEntity
  8
0
100
AcDbLine
 62
7
  6
CONTINUOUS
 10
10.3161813002
 20
21.5873588344
 11
10.4047533063
 21
21.6509667354
  0
LINE
  5
28C
100
AcDbEntity
  8
0
100
AcDbLine
 62
7
  6
CONTINUOUS
 10
10.291190581
 20
22.0802003034
 11
10.1322240568
 21
22.0052547598
  0
LINE
  5
28D
100
AcDbEntity
  8
0
100
AcDbLine
 62
7
  6
CONTINUOUS
 10
9.4599763701
 20
21.1081704421
 11
9.2941966147
 21
21.189929217
  0
LINE
  5
28E
100
AcDbEntity
  8
0
100
AcDbLine
 62
7
  6
CONTINUOUS
 10
8.987601209
 20
21.0513757724
 11
9.0738843952
 21
21.0082607935
  0
LINE
  5
28F
100
AcDbEntity
  8
0
100
AcDbLine
 62
7
  6
CONTINUOUS
 10
10.1185975944
 20
20.4972684507
 11
10.2480489879
 21
20.4313717298
  0
LINE
  5
290
100
AcDbEntity
  8
0
100
AcDbLine
 62
7
  6
CONTINUOUS
 10
10.9815891416
 20
21.4420187728
 11
11.0111308864
 21
21.3012031225
  0
LINE
  5
291
100
AcDbEntity
  8
0
100
AcDbLine
 62
7
  6
CONTINUOUS
 10
11.4630663538
 20
21.0718154661
 11
11.4630663538
 21
21.3261938417
  0
LINE
  5
292
100
AcDbEntity
  8
0
100
AcDbLine
 62
7
  6
CONTINUOUS
 10
10.9906911927
 20
21.0355137184
 11
10.9429985741
 21
20.9355508414
  0
LINE
  5
293
100
AcDbEntity
  8
0
100
AcDbLine
 62
7
  6
CONTINUOUS
 10
10.9429985741
 20
20.9355508414
 11
10.8748662617
 21
20.8469788353
  0
LINE
  5
294
100
AcDbEntity
  8
0
100
AcDbLine
 62
7
  6
CONTINUOUS
 10
10.2480489879
 20
20.4313717298
 11
10.3979400751
 21
20.3950699821
  0
LINE
  5
295
100
AcDbEntity
  8
0
100
AcDbLine
 62
7
  6
CONTINUOUS
 10
10.4660723875
 20
20.7720332917
 11
10.3502474564
 21
20.8288279614
  0
LINE
  5
296
100
AcDbEntity
  8
0
100
AcDbLine
 62
7
  6
CONTINUOUS
 10
8.9262821279
 20
21.6532289411
 11
9.019652243
 21
21.6016190564
  0
LINE
  5
297
100
AcDbEntity
  8
0
100
AcDbLine
 62
7
  6
CONTINUOUS
 10
11.6879029846
 20
21.1445254182
 11
11.7060804726
 21
20.9287376101
  0
LINE
  5
298
100
AcDbEntity
  8
0
100
AcDbLine
 62
7
  6
CONTINUOUS
 10
11.6879029846
 20
21.430654516
 11
11.6879029846
 21
21.1445254182
  0
LINE
  5
299
100
AcDbEntity
  8
0
100
AcDbLine
 62
7
  6
CONTINUOUS
 10
11.7355956033
 20
21.6237138105
 11
11.6879029846
 21
21.430654516
  0
LINE
  5
29A
100
AcDbEntity
  8
0
100
AcDbLine
 62
7
  6
CONTINUOUS
 10
11.424449172
 20
20.9196887874
 11
11.4630663538
 21
21.0718154661
  0
LINE
  5
29B
100
AcDbEntity
  8
0
100
AcDbLine
 62
7
  6
CONTINUOUS
 10
11.3245395233
 20
20.7334427241
 11
11.424449172
 21
20.9196887874
  0
LINE
  5
29C
100
AcDbEntity
  8
0
100
AcDbLine
 62
7
  6
CONTINUOUS
 10
11.8559715598
 20
21.8121954653
 11
11.7355956033
 21
21.6237138105
  0
LINE
  5
29D
100
AcDbEntity
  8
0
100
AcDbLine
 62
7
  6
CONTINUOUS
 10
12.0376399834
 20
21.966637578
 11
11.8559715598
 21
21.8121954653
  0
LINE
  5
29E
100
AcDbEntity
  8
0
100
AcDbLine
 62
7
  6
CONTINUOUS
 10
9.0579957271
 20
20.7652200604
 11
8.9444330017
 21
20.7107142105
  0
LINE
  5
29F
100
AcDbEntity
  8
0
100
AcDbLine
 62
7
  6
CONTINUOUS
 10
12.2306992779
 20
22.0552095841
 11
12.0376399834
 21
21.966637578
  0
LINE
  5
2A0
100
AcDbEntity
  8
0
100
AcDbLine
 62
7
  6
CONTINUOUS
 10
10.4047533063
 20
21.6509667354
 11
10.5014091456
 21
21.6851832801
  0
LINE
  5
2A1
100
AcDbEntity
  8
0
100
AcDbLine
 62
7
  6
CONTINUOUS
 10
14.3087348052
 20
20.4086964446
 11
14.5471978985
 21
20.4609134746
  0
LINE
  5
2A2
100
AcDbEntity
  8
0
100
AcDbLine
 62
7
  6
CONTINUOUS
 10
14.1724701805
 20
20.3836791111
 11
14.3087348052
 21
20.4086964446
  0
LINE
  5
2A3
100
AcDbEntity
  8
0
100
AcDbLine
 62
7
  6
CONTINUOUS
 10
12.0989590645
 20
20.4722511172
 11
12.2761030767
 21
20.4064076247
  0
LINE
  5
2A4
100
AcDbEntity
  8
0
100
AcDbLine
 62
7
  6
CONTINUOUS
 10
9.3305249765
 20
21.9371224474
 11
9.1738206581
 21
22.0234056336
  0
LINE
  5
2A5
100
AcDbEntity
  8
0
100
AcDbLine
 62
7
  6
CONTINUOUS
 10
11.9263660779
 20
20.5971780994
 11
12.0989590645
 21
20.4722511172
  0
LINE
  5
2A6
100
AcDbEntity
  8
0
100
AcDbLine
 62
7
  6
CONTINUOUS
 10
10.7953696925
 20
21.6464157099
 11
10.8839416986
 21
21.5578437038
  0
LINE
  5
2A7
100
AcDbEntity
  8
0
100
AcDbLine
 62
7
  6
CONTINUOUS
 10
11.7923636588
 20
20.7538824178
 11
11.9263660779
 21
20.5971780994
  0
LINE
  5
2A8
100
AcDbEntity
  8
0
100
AcDbLine
 62
7
  6
CONTINUOUS
 10
10.8839416986
 20
21.5578437038
 11
10.9815891416
 21
21.4420187728
  0
LINE
  5
2A9
100
AcDbEntity
  8
0
100
AcDbLine
 62
7
  6
CONTINUOUS
 10
11.7060804726
 20
20.9287376101
 11
11.7923636588
 21
20.7538824178
  0
LINE
  5
2AA
100
AcDbEntity
  8
0
100
AcDbLine
 62
7
  6
CONTINUOUS
 10
11.4176359408
 20
21.5351418044
 11
11.3177262921
 21
21.7418009472
  0
LINE
  5
2AB
100
AcDbEntity
  8
0
100
AcDbLine
 62
7
  6
CONTINUOUS
 10
11.4630663538
 20
21.3261938417
 11
11.4176359408
 21
21.5351418044
  0
LINE
  5
2AC
100
AcDbEntity
  8
0
100
AcDbLine
 62
7
  6
CONTINUOUS
 10
11.165546385
 20
20.5540098921
 11
11.3245395233
 21
20.7334427241
  0
LINE
  5
2AD
100
AcDbEntity
  8
0
100
AcDbLine
 62
7
  6
CONTINUOUS
 10
10.8748662617
 20
20.8469788353
 11
10.7544903051
 21
20.7766109314
  0
LINE
  5
2AE
100
AcDbEntity
  8
0
100
AcDbLine
 62
7
  6
CONTINUOUS
 10
9.1942603518
 20
20.3587150061
 11
9.3032720516
 21
20.413220856
  0
LINE
  5
2AF
100
AcDbEntity
  8
0
100
AcDbLine
 62
7
  6
CONTINUOUS
 10
14.33827655
 20
20.7834241626
 11
14.1633681294
 21
20.7493580064
  0
LINE
  5
2B0
100
AcDbEntity
  8
0
100
AcDbLine
 62
7
  6
CONTINUOUS
 10
12.5213794012
 20
20.3768658799
 11
12.7507936718
 21
20.3995943935
  0
LINE
  5
2B1
100
AcDbEntity
  8
0
100
AcDbLine
 62
7
  6
CONTINUOUS
 10
8.1132187908
 20
20.3587150061
 11
9.1942603518
 21
20.3587150061
  0
LINE
  5
2B2
100
AcDbEntity
  8
0
100
AcDbLine
 62
7
  6
CONTINUOUS
 10
16.813768309
 20
20.3587150061
 11
17.2588639309
 21
20.3587150061
  0
LINE
  5
2B3
100
AcDbEntity
  8
0
100
AcDbLine
 62
7
  6
CONTINUOUS
 10
15.0394732768
 20
20.3626520139
 11
15.4948776723
 21
20.3626520139
  0
LINE
  5
2B4
100
AcDbEntity
  8
0
100
AcDbLine
 62
7
  6
CONTINUOUS
 10
16.0818763432
 20
20.3626520139
 11
16.5213867693
 21
20.3626520139
  0
LINE
  5
2B5
100
AcDbEntity
  8
0
100
AcDbLine
 62
7
  6
CONTINUOUS
 10
14.0316811444
 20
20.3836791111
 11
14.1724701805
 21
20.3836791111
  0
LINE
  5
2B6
100
AcDbEntity
  8
0
100
AcDbLine
 62
7
  6
CONTINUOUS
 10
10.3979400751
 20
20.3950699821
 11
10.790818667
 21
20.3950699821
  0
LINE
  5
2B7
100
AcDbEntity
  8
0
100
AcDbLine
 62
7
  6
CONTINUOUS
 10
10.6114124491
 20
20.7561712377
 11
10.4660723875
 21
20.7720332917
  0
LINE
  5
2B8
100
AcDbEntity
  8
0
100
AcDbLine
 62
7
  6
CONTINUOUS
 10
12.2761030767
 20
20.4064076247
 11
12.5213794012
 21
20.3768658799
  0
LINE
  5
2B9
100
AcDbEntity
  8
0
100
AcDbLine
 62
7
  6
CONTINUOUS
 10
13.8772124174
 20
20.413220856
 11
14.0316811444
 21
20.3836791111
  0
LINE
  5
2BA
100
AcDbEntity
  8
0
100
AcDbLine
 62
7
  6
CONTINUOUS
 10
11.3177262921
 20
21.7418009472
 11
11.2221050806
 21
21.8591438347
  0
LINE
  5
2BB
100
AcDbEntity
  8
0
100
AcDbLine
 62
7
  6
CONTINUOUS
 10
12.1148743469
 20
21.1240857245
 11
12.1148743469
 21
21.2466972726
  0
LINE
  5
2BC
100
AcDbEntity
  8
0
100
AcDbLine
 62
7
  6
CONTINUOUS
 10
12.1148743469
 20
21.2466972726
 11
12.1466516832
 21
21.3875129229
  0
LINE
  5
2BD
100
AcDbEntity
  8
0
100
AcDbLine
 62
7
  6
CONTINUOUS
 10
12.1466516832
 20
21.3875129229
 11
12.2223078549
 21
21.5529813645
  0
LINE
  5
2BE
100
AcDbEntity
  8
0
100
AcDbLine
 62
7
  6
CONTINUOUS
 10
12.2223078549
 20
21.5529813645
 11
12.3646750828
 21
21.662304378
  0
LINE
  5
2BF
100
AcDbEntity
  8
0
100
AcDbLine
 62
7
  6
CONTINUOUS
 10
13.9317182673
 20
22.0688360466
 11
13.7341345614
 21
22.0075169654
  0
LINE
  5
2C0
100
AcDbEntity
  8
0
100
AcDbLine
 62
7
  6
CONTINUOUS
 10
10.790818667
 20
20.3950699821
 11
11.0088420666
 21
20.4541002434
  0
LINE
  5
2C1
100
AcDbEntity
  8
0
100
AcDbLine
 62
7
  6
CONTINUOUS
 10
12.6463063833
 20
20.7856597541
 11
12.5259304268
 21
20.7697977002
  0
LINE
  5
2C2
100
AcDbEntity
  8
0
100
AcDbLine
 62
7
  6
CONTINUOUS
 10
8.9444330017
 20
20.7107142105
 11
8.5583676411
 21
20.7107142105
  0
LINE
  5
2C3
100
AcDbEntity
  8
0
100
AcDbLine
 62
7
  6
CONTINUOUS
 10
12.5259304268
 20
20.7697977002
 11
12.4101054957
 21
20.7811353428
  0
LINE
  5
2C4
100
AcDbEntity
  8
0
100
AcDbLine
 62
7
  6
CONTINUOUS
 10
10.6795447615
 20
21.6941083285
 11
10.7953696925
 21
21.6464157099
  0
LINE
  5
2C5
100
AcDbEntity
  8
0
100
AcDbLine
 62
7
  6
CONTINUOUS
 10
13.7159836876
 20
20.4813531683
 11
13.8772124174
 21
20.413220856
  0
LINE
  5
2C6
100
AcDbEntity
  8
0
100
AcDbLine
 62
7
  6
CONTINUOUS
 10
12.4101054957
 20
20.7811353428
 11
12.2670276398
 21
20.8537920665
  0
LINE
  5
2C7
100
AcDbEntity
  8
0
100
AcDbLine
 62
7
  6
CONTINUOUS
 10
12.2670276398
 20
20.8537920665
 11
12.1807178394
 21
20.9650925862
  0
LINE
  5
2C8
100
AcDbEntity
  8
0
100
AcDbLine
 62
7
  6
CONTINUOUS
 10
12.1807178394
 20
20.9650925862
 11
12.1148743469
 21
21.1240857245
  0
LINE
  5
2C9
100
AcDbEntity
  8
0
100
AcDbLine
 62
7
  6
CONTINUOUS
 10
12.8779562454
 20
21.4624584665
 11
13.2050445732
 21
21.7486141784
  0
LINE
  5
2CA
100
AcDbEntity
  8
0
100
AcDbLine
 62
7
  6
CONTINUOUS
 10
13.7341345614
 20
22.0075169654
 11
13.5978699367
 21
21.9053184969
  0
LINE
  5
2CB
100
AcDbEntity
  8
0
100
AcDbLine
 62
7
  6
CONTINUOUS
 10
11.0088420666
 20
20.4541002434
 11
11.165546385
 21
20.5540098921
  0
LINE
  5
2CC
100
AcDbEntity
  8
0
100
AcDbLine
 62
7
  6
CONTINUOUS
 10
10.7544903051
 20
20.7766109314
 11
10.6114124491
 21
20.7561712377
  0
LINE
  5
2CD
100
AcDbEntity
  8
0
100
AcDbLine
 62
7
  6
CONTINUOUS
 10
8.5583676411
 20
21.0445625411
 11
8.987601209
 21
21.0513757724
  0
LINE
  5
2CE
100
AcDbEntity
  8
0
100
AcDbLine
 62
7
  6
CONTINUOUS
 10
15.4948776723
 20
20.9803672366
 11
16.0818763432
 21
20.9803672366
  0
LINE
  5
2CF
100
AcDbEntity
  8
0
100
AcDbLine
 62
7
  6
CONTINUOUS
 10
14.1633681294
 20
20.7493580064
 11
14.0225790933
 21
20.7720332917
  0
LINE
  5
2D0
100
AcDbEntity
  8
0
100
AcDbLine
 62
7
  6
CONTINUOUS
 10
11.0451970426
 20
21.966637578
 11
10.9157456491
 21
22.039320916
  0
LINE
  5
2D1
100
AcDbEntity
  8
0
100
AcDbLine
 62
7
  6
CONTINUOUS
 10
11.2221050806
 20
21.8591438347
 11
11.0451970426
 21
21.966637578
  0
LINE
  5
2D2
100
AcDbEntity
  8
0
100
AcDbLine
 62
7
  6
CONTINUOUS
 10
13.5706170117
 20
20.5767384057
 11
13.7159836876
 21
20.4813531683
  0
LINE
  5
2D3
100
AcDbEntity
  8
0
100
AcDbLine
 62
7
  6
CONTINUOUS
 10
13.186840471
 20
20.7289183127
 11
12.889293888
 21
20.9650925862
  0
LINE
  5
2D4
100
AcDbEntity
  8
0
100
AcDbLine
 62
7
  6
CONTINUOUS
 10
13.5978699367
 20
21.9053184969
 11
13.4479788495
 21
21.707734791
  0
LINE
  5
2D5
100
AcDbEntity
  8
0
100
AcDbLine
 62
7
  6
CONTINUOUS
 10
12.889293888
 20
20.9650925862
 11
12.746216032
 21
20.851556475
  0
LINE
  5
2D6
100
AcDbEntity
  8
0
100
AcDbLine
 62
7
  6
CONTINUOUS
 10
12.746216032
 20
20.851556475
 11
12.6463063833
 21
20.7856597541
  0
LINE
  5
2D7
100
AcDbEntity
  8
0
100
AcDbLine
 62
7
  6
CONTINUOUS
 10
13.9713178483
 20
21.6489097342
 11
14.1577183505
 21
21.6941197992
  0
LINE
  5
2D8
100
AcDbEntity
  8
0
100
AcDbLine
 62
7
  6
CONTINUOUS
 10
8.9330953591
 20
21.3602599979
 11
8.5628920524
 21
21.3602599979
  0
LINE
  5
2D9
100
AcDbEntity
  8
0
100
AcDbLine
 62
7
  6
CONTINUOUS
 10
16.0358359828
 20
21.419892923
 11
15.5107397263
 21
21.419892923
  0
LINE
  5
2DA
100
AcDbEntity
  8
0
100
AcDbLine
 62
7
  6
CONTINUOUS
 10
10.9157456491
 20
22.039320916
 11
10.7340506114
 21
22.1029022028
  0
LINE
  5
2DB
100
AcDbEntity
  8
0
100
AcDbLine
 62
7
  6
CONTINUOUS
 10
12.6349421266
 20
21.6714064291
 11
12.784859828
 21
21.5555548839
  0
LINE
  5
2DC
100
AcDbEntity
  8
0
100
AcDbLine
 62
7
  6
CONTINUOUS
 10
12.784859828
 20
21.5555548839
 11
12.8779562454
 21
21.4624584665
  0
LINE
  5
2DD
100
AcDbEntity
  8
0
100
AcDbLine
 62
7
  6
CONTINUOUS
 10
13.4321167955
 20
20.7493580064
 11
13.5706170117
 21
20.5767384057
  0
LINE
  5
2DE
100
AcDbEntity
  8
0
100
AcDbLine
 62
7
  6
CONTINUOUS
 10
13.3162918645
 20
21.2898654799
 11
13.3162918645
 21
21.1195080848
  0
LINE
  5
2DF
100
AcDbEntity
  8
0
100
AcDbLine
 62
7
  6
CONTINUOUS
 10
13.3435447894
 20
21.5147021107
 11
13.3162918645
 21
21.2898654799
  0
LINE
  5
2E0
100
AcDbEntity
  8
0
100
AcDbLine
 62
7
  6
CONTINUOUS
 10
13.4479788495
 20
21.707734791
 11
13.3435447894
 21
21.5147021107
  0
LINE
  5
2E1
100
AcDbEntity
  8
0
100
AcDbLine
 62
7
  6
CONTINUOUS
 10
13.8680630756
 20
21.5456821481
 11
13.9713178483
 21
21.6489097342
  0
LINE
  5
2E2
100
AcDbEntity
  8
0
100
AcDbLine
 62
7
  6
CONTINUOUS
 10
12.3646750828
 20
21.662304378
 11
12.5009397075
 21
21.7009215598
  0
LINE
  5
2E3
100
AcDbEntity
  8
0
100
AcDbLine
 62
7
  6
CONTINUOUS
 10
14.0725605318
 20
22.0892757403
 11
13.9317182673
 21
22.0688360466
  0
LINE
  5
2E4
100
AcDbEntity
  8
0
100
AcDbLine
 62
7
  6
CONTINUOUS
 10
10.5014091456
 20
21.6851832801
 11
10.6795447615
 21
21.6941083285
  0
LINE
  5
2E5
100
AcDbEntity
  8
0
100
AcDbLine
 62
7
  6
CONTINUOUS
 10
8.5583676411
 20
21.6600421724
 11
8.9262821279
 21
21.6532289411
  0
LINE
  5
2E6
100
AcDbEntity
  8
0
100
AcDbLine
 62
7
  6
CONTINUOUS
 10
12.5009397075
 20
21.7009215598
 11
12.6349421266
 21
21.6714064291
  0
LINE
  5
2E7
100
AcDbEntity
  8
0
100
AcDbLine
 62
7
  6
CONTINUOUS
 10
14.0225790933
 20
20.7720332917
 11
13.8635859549
 21
20.8946714539
  0
LINE
  5
2E8
100
AcDbEntity
  8
0
100
AcDbLine
 62
7
  6
CONTINUOUS
 10
13.3457803809
 20
20.9242131987
 11
13.4321167955
 21
20.7493580064
  0
LINE
  5
2E9
100
AcDbEntity
  8
0
100
AcDbLine
 62
7
  6
CONTINUOUS
 10
13.3162918645
 20
21.1195080848
 11
13.3457803809
 21
20.9242131987
  0
LINE
  5
2EA
100
AcDbEntity
  8
0
100
AcDbLine
 62
7
  6
CONTINUOUS
 10
13.7659651261
 20
21.3829618973
 11
13.8680630756
 21
21.5456821481
  0
LINE
  5
2EB
100
AcDbEntity
  8
0
100
AcDbLine
 62
7
  6
CONTINUOUS
 10
13.0755399513
 20
20.5948892795
 11
13.186840471
 21
20.7289183127
  0
LINE
  5
2EC
100
AcDbEntity
  8
0
100
AcDbLine
 62
7
  6
CONTINUOUS
 10
12.928065406
 20
20.4655458563
 11
13.0755399513
 21
20.5948892795
  0
LINE
  5
2ED
100
AcDbEntity
  8
0
100
AcDbLine
 62
7
  6
CONTINUOUS
 10
14.5222337934
 20
21.476084929
 11
14.8469800729
 21
21.734987716
  0
LINE
  5
2EE
100
AcDbEntity
  8
0
100
AcDbLine
 62
7
  6
CONTINUOUS
 10
12.7507936718
 20
20.3995943935
 11
12.928065406
 21
20.4655458563
  0
LINE
  5
2EF
100
AcDbEntity
  8
0
100
AcDbLine
 62
7
  6
CONTINUOUS
 10
12.4032922645
 20
22.091537946
 11
12.2306992779
 21
22.0552095841
  0
LINE
  5
2F0
100
AcDbEntity
  8
0
100
AcDbLine
 62
7
  6
CONTINUOUS
 10
9.1738206581
 20
22.0234056336
 11
8.1132187908
 21
22.012067991
  0
LINE
  5
2F1
100
AcDbEntity
  8
0
100
AcDbLine
 62
7
  6
CONTINUOUS
 10
16.5213867693
 20
22.0058535171
 11
16.0330960467
 21
22.0058535171
  0
LINE
  5
2F2
100
AcDbEntity
  8
0
100
AcDbLine
 62
7
  6
CONTINUOUS
 10
15.5107397263
 20
22.0308328825
 11
15.0484795886
 21
22.0308328825
  0
LINE
  5
2F3
100
AcDbEntity
  8
0
100
AcDbLine
 62
7
  6
CONTINUOUS
 10
14.2246872105
 20
22.0892757403
 11
14.0725605318
 21
22.0892757403
  0
LINE
  5
2F4
100
AcDbEntity
  8
0
100
AcDbLine
 62
7
  6
CONTINUOUS
 10
12.6213156641
 20
22.091537946
 11
12.4032922645
 21
22.091537946
  0
LINE
  5
2F5
100
AcDbEntity
  8
0
100
AcDbLine
 62
7
  6
CONTINUOUS
 10
10.7340506114
 20
22.1029022028
 11
10.5887105497
 21
22.1029022028
  0
LINE
  5
2F6
100
AcDbEntity
  8
0
100
AcDbLine
 62
7
  6
CONTINUOUS
 10
17.2611527591
 20
22.0121538431
 11
16.8046668485
 21
22.016484829
  0
LINE
  5
2F7
100
AcDbEntity
  8
0
100
AcDbLine
 62
7
  6
CONTINUOUS
 10
12.8552277318
 20
22.0483963529
 11
12.6213156641
 21
22.091537946
  0
LINE
  5
2F8
100
AcDbEntity
  8
0
100
AcDbLine
 62
7
  6
CONTINUOUS
 10
14.1577183505
 20
21.6941197992
 11
14.2996327541
 21
21.6486779156
  0
LINE
  5
2F9
100
AcDbEntity
  8
0
100
AcDbLine
 62
7
  6
CONTINUOUS
 10
13.0233229213
 20
21.9303092162
 11
12.8552277318
 21
22.0483963529
  0
LINE
  5
2FA
100
AcDbEntity
  8
0
100
AcDbLine
 62
7
  6
CONTINUOUS
 10
14.8537933042
 20
20.7447803667
 11
14.5222337934
 21
20.9923455111
  0
LINE
  5
2FB
100
AcDbEntity
  8
0
100
AcDbLine
 62
7
  6
CONTINUOUS
 10
13.2050445732
 20
21.7486141784
 11
13.0233229213
 21
21.9303092162
  0
LINE
  5
2FC
100
AcDbEntity
  8
0
100
AcDbLine
 62
7
  6
CONTINUOUS
 10
13.8635859549
 20
20.8946714539
 11
13.7704895375
 21
21.0513757724
  0
LINE
  5
2FD
100
AcDbEntity
  8
0
100
AcDbLine
 62
7
  6
CONTINUOUS
 10
13.7409477927
 20
21.2012934738
 11
13.7659651261
 21
21.3829618973
  0
LINE
  5
2FE
100
AcDbEntity
  8
0
100
AcDbLine
 62
7
  6
CONTINUOUS
 10
10.5887105497
 20
22.1029022028
 11
10.291190581
 21
22.0802003034
  0
LINE
  5
2FF
100
AcDbEntity
  8
0
100
AcDbLine
 62
7
  6
CONTINUOUS
 10
14.3950179914
 20
22.0620228153
 11
14.2246872105
 21
22.0892757403
  0
LINE
  5
300
100
AcDbEntity
  8
0
100
AcDbLine
 62
7
  6
CONTINUOUS
 10
14.2996327541
 20
21.6486779156
 11
14.4302551717
 21
21.5680635507
  0
LINE
  5
301
100
AcDbEntity
  8
0
100
AcDbLine
 62
7
  6
CONTINUOUS
 10
13.7704895375
 20
21.0513757724
 11
13.7409477927
 21
21.2012934738
  0
LINE
  5
302
100
AcDbEntity
  8
0
100
AcDbLine
 62
7
  6
CONTINUOUS
 10
14.44499943
 20
20.9060623249
 11
14.33827655
 21
20.7834241626
  0
LINE
  5
303
100
AcDbEntity
  8
0
100
AcDbLine
 62
7
  6
CONTINUOUS
 10
14.5222337934
 20
20.9923455111
 11
14.44499943
 21
20.9060623249
  0
LINE
  5
304
100
AcDbEntity
  8
0
100
AcDbLine
 62
7
  6
CONTINUOUS
 10
14.5358602559
 20
22.0052547598
 11
14.3950179914
 21
22.0620228153
  0
LINE
  5
305
100
AcDbEntity
  8
0
100
AcDbLine
 62
7
  6
CONTINUOUS
 10
14.4302551717
 20
21.5680635507
 11
14.5222337934
 21
21.476084929
  0
LINE
  5
306
100
AcDbEntity
  8
0
100
AcDbLine
 62
7
  6
CONTINUOUS
 10
14.5471978985
 20
20.4609134746
 11
14.7266307305
 21
20.5767384057
  0
LINE
  5
307
100
AcDbEntity
  8
0
100
AcDbLine
 62
7
  6
CONTINUOUS
 10
14.6811737034
 20
21.9143939338
 11
14.5358602559
 21
22.0052547598
  0
LINE
  5
308
100
AcDbEntity
  8
0
100
AcDbLine
 62
7
  6
CONTINUOUS
 10
14.7266307305
 20
20.5767384057
 11
14.8537933042
 21
20.7447803667
  0
LINE
  5
309
100
AcDbEntity
  8
0
100
AcDbLine
 62
7
  6
CONTINUOUS
 10
14.8469800729
 20
21.734987716
 11
14.6811737034
 21
21.9143939338
  0
LINE
  5
30A
100
AcDbEntity
  8
0
100
AcDbLine
 62
7
  6
CONTINUOUS
 10
15.0484795886
 20
22.0308328825
 11
15.0394732768
 21
20.3626520139
  0
LINE
  5
30B
100
AcDbEntity
  8
0
100
AcDbLine
 62
7
  6
CONTINUOUS
 10
15.4948776723
 20
20.3626520139
 11
15.4948776723
 21
20.9803672366
  0
LINE
  5
30C
100
AcDbEntity
  8
0
100
AcDbLine
 62
7
  6
CONTINUOUS
 10
15.5107397263
 20
21.419892923
 11
15.5107397263
 21
22.0308328825
  0
LINE
  5
30D
100
AcDbEntity
  8
0
100
AcDbLine
 62
7
  6
CONTINUOUS
 10
16.0330960467
 20
22.0058535171
 11
16.0358359828
 21
21.419892923
  0
LINE
  5
30E
100
AcDbEntity
  8
0
100
AcDbLine
 62
7
  6
CONTINUOUS
 10
16.0818763432
 20
20.9803672366
 11
16.0818763432
 21
20.3626520139
  0
LINE
  5
30F
100
AcDbEntity
  8
0
100
AcDbLine
 62
7
  6
CONTINUOUS
 10
16.5213867693
 20
20.3626520139
 11
16.5213867693
 21
22.0058535171
  0
LINE
  5
310
100
AcDbEntity
  8
0
100
AcDbLine
 62
7
  6
CONTINUOUS
 10
16.8046668485
 20
22.016484829
 11
16.813768309
 21
20.3587150061
  0
LINE
  5
311
100
AcDbEntity
  8
0
100
AcDbLine
 62
7
  6
CONTINUOUS
 10
17.2588639309
 20
20.3587150061
 11
17.2611527591
 21
22.0121538431
  0
LINE
  5
312
100
AcDbEntity
  8
0
100
AcDbLine
 62
7
  6
CONTINUOUS
 10
16.1986690514
 20
14.6875308553
 11
16.1106335971
 21
14.3874045357
  0
LINE
  5
313
100
AcDbEntity
  8
0
100
AcDbLine
 62
7
  6
CONTINUOUS
 10
16.2317087079
 20
14.7430187756
 11
16.1986690514
 21
14.6875308553
  0
LINE
  5
314
100
AcDbEntity
  8
0
100
AcDbLine
 62
7
  6
CONTINUOUS
 10
16.1106335971
 20
14.3874045357
 11
16.111463777
 21
14.3680187756
  0
LINE
  5
315
100
AcDbEntity
  8
0
100
AcDbLine
 62
7
  6
CONTINUOUS
 10
16.9965452974
 20
13.9940030275
 11
16.9965452974
 21
14.2499085394
  0
LINE
  5
316
100
AcDbEntity
  8
0
100
AcDbLine
 62
7
  6
CONTINUOUS
 10
17.1270893164
 20
14.2312537353
 11
17.1166108473
 21
14.0313126356
  0
LINE
  5
317
100
AcDbEntity
  8
DEFAULT_3
100
AcDbLine
 62
7
  6
PHANTOM
 10
17.2450376866
 20
14.2312537353
 11
17.2345592176
 21
14.0313126356
  0
LINE
  5
318
100
AcDbEntity
  8
0
100
AcDbLine
 62
7
  6
CONTINUOUS
 10
19.0479025836
 20
13.0445853849
 11
19.4134067758
 21
13.0877961159
  0
LINE
  5
319
100
AcDbEntity
  8
DEFAULT_3
100
AcDbLine
 62
7
  6
PHANTOM
 10
17.2345592176
 20
13.9940030275
 11
17.2345592176
 21
14.0313126356
  0
LINE
  5
31A
100
AcDbEntity
  8
DEFAULT_3
100
AcDbLine
 62
7
  6
PHANTOM
 10
17.2450376866
 20
14.2312537353
 11
17.2450376866
 21
14.2499085394
  0
LINE
  5
31B
100
AcDbEntity
  8
0
100
AcDbLine
 62
7
  6
CONTINUOUS
 10
17.4099311242
 20
14.0136880669
 11
17.4099311242
 21
14.2302235
  0
LINE
  5
31C
100
AcDbEntity
  8
0
100
AcDbLine
 62
7
  6
CONTINUOUS
 10
17.7839468722
 20
14.0136880669
 11
17.7839468722
 21
14.2302235
  0
LINE
  5
31D
100
AcDbEntity
  8
0
100
AcDbLine
 62
7
  6
CONTINUOUS
 10
17.7642618328
 20
13.9940030275
 11
17.4296161636
 21
13.9940030275
  0
LINE
  5
31E
100
AcDbEntity
  8
0
100
AcDbLine
 62
7
  6
CONTINUOUS
 10
17.0772947239
 20
13.9940030275
 11
16.9965452974
 21
13.9940030275
  0
LINE
  5
31F
100
AcDbEntity
  8
0
100
AcDbLine
 62
7
  6
CONTINUOUS
 10
18.4331444837
 20
14.1317983031
 11
18.8788417398
 21
14.1317983031
  0
LINE
  5
320
100
AcDbEntity
  8
0
100
AcDbLine
 62
7
  6
CONTINUOUS
 10
18.4312179906
 20
14.4305187756
 11
18.4312179906
 21
14.6805187756
  0
LINE
  5
321
100
AcDbEntity
  8
0
100
AcDbLine
 62
7
  6
CONTINUOUS
 10
18.4729232502
 20
14.3483337362
 11
18.4729232502
 21
14.3680187756
  0
LINE
  5
322
100
AcDbEntity
  8
DEFAULT_3
100
AcDbLine
 62
7
  6
PHANTOM
 10
17.2450376866
 20
14.2312537353
 11
17.4099311242
 21
14.2312537353
  0
LINE
  5
323
100
AcDbEntity
  8
DEFAULT_3
100
AcDbLine
 62
7
  6
PHANTOM
 10
17.7839468722
 20
14.2312537353
 11
18.1984672555
 21
14.2312537353
  0
LINE
  5
324
100
AcDbEntity
  8
0
100
AcDbLine
 62
7
  6
CONTINUOUS
 10
17.1467473781
 20
14.2499085394
 11
18.2967625303
 21
14.2499085394
  0
LINE
  5
325
100
AcDbEntity
  8
0
100
AcDbLine
 62
7
  6
CONTINUOUS
 10
18.571348447
 20
14.2499085394
 11
19.9980209613
 21
14.2499085394
  0
LINE
  5
326
100
AcDbEntity
  8
0
100
AcDbLine
 62
7
  6
CONTINUOUS
 10
18.1984690952
 20
14.2321251221
 11
18.2060681332
 21
14.2298724031
  0
LWPOLYLINE
  5
327
100
AcDbEntity
  8
0
100
AcDbPolyline
 62
7
  6
CONTINUOUS
 90
3
 70
0
 10
18.2060681332
 20
14.2298724031
 10
18.2134037024
 20
14.2249746662
 10
18.2208425858
 20
14.2189662471
  0
LWPOLYLINE
  5
328
100
AcDbEntity
  8
0
100
AcDbPolyline
 62
7
  6
CONTINUOUS
 90
12
 70
0
 10
18.2208425858
 20
14.2189662471
 10
18.2371876099
 20
14.2049789345
 10
18.2464296961
 20
14.1972172658
 10
18.256585979
 20
14.1890304038
 10
18.26782939
 20
14.1804973223
 10
18.2803632453
 20
14.1717261165
 10
18.2944275537
 20
14.1628767704
 10
18.3103025756
 20
14.1541957948
 10
18.3283047856
 20
14.1460540007
 10
18.3487705964
 20
14.1390038925
 10
18.3720181483
 20
14.1338577513
 10
18.3982497222
 20
14.1317983034
  0
LINE
  5
329
100
AcDbEntity
  8
DEFAULT_3
100
AcDbLine
 62
7
  6
PHANTOM
 10
19.9848303303
 20
14.3483337362
 11
18.4729232502
 21
14.3483337362
  0
LINE
  5
32A
100
AcDbEntity
  8
0
100
AcDbLine
 62
7
  6
CONTINUOUS
 10
19.9821922041
 20
14.3680187756
 11
18.4271277388
 21
14.3680187756
  0
LINE
  5
32B
100
AcDbEntity
  8
0
100
AcDbLine
 62
7
  6
CONTINUOUS
 10
18.3909320811
 20
14.3680187756
 11
16.111463777
 21
14.3680187756
  0
LINE
  5
32C
100
AcDbEntity
  8
0
100
AcDbLine
 62
7
  6
CONTINUOUS
 10
16.2317087079
 20
14.7430187756
 11
19.8902699628
 21
14.7430187756
  0
LINE
  5
32D
100
AcDbEntity
  8
0
100
AcDbLine
 62
7
  6
CONTINUOUS
 10
18.9967901101
 20
14.0198694791
 11
19.0479025836
 21
13.0445853849
  0
LINE
  5
32E
100
AcDbEntity
  8
0
100
AcDbLine
 62
7
  6
CONTINUOUS
 10
19.1738065407
 20
13.1517778436
 11
19.1279878318
 21
14.0260508912
  0
LINE
  5
32F
100
AcDbEntity
  8
0
100
AcDbLine
 62
7
  6
CONTINUOUS
 10
19.4134067758
 20
13.0877961159
 11
19.8461750349
 21
13.3786400704
  0
LINE
  5
330
100
AcDbEntity
  8
0
100
AcDbLine
 62
7
  6
CONTINUOUS
 10
19.8461750349
 20
13.3786400704
 11
20.0340863581
 21
13.9807975483
  0
LINE
  5
331
100
AcDbEntity
  8
0
100
AcDbLine
 62
7
  6
CONTINUOUS
 10
19.9415678618
 20
14.6711474805
 11
19.8902699628
 21
14.7430187756
  0
LINE
  5
332
100
AcDbEntity
  8
0
100
AcDbLine
 62
7
  6
CONTINUOUS
 10
20.0340863581
 20
13.9807975483
 11
19.9415678618
 21
14.6711474805
  0
LINE
  5
333
100
AcDbEntity
  8
0
100
AcDbLine
 62
7
  6
CONTINUOUS
 10
8.7265841589
 20
14.7418606469
 11
8.6969071884
 21
14.4081997764
  0
LINE
  5
334
100
AcDbEntity
  8
0
100
AcDbLine
 62
7
  6
CONTINUOUS
 10
8.6969071884
 20
14.4081997764
 11
8.7191021415
 21
14.3668606469
  0
LINE
  5
335
100
AcDbEntity
  8
0
100
AcDbLine
 62
7
  6
CONTINUOUS
 10
12.2725055328
 20
12.820214895
 11
12.8840378689
 21
12.8205002225
  0
LINE
  5
336
100
AcDbEntity
  8
0
100
AcDbLine
 62
7
  6
CONTINUOUS
 10
11.8717730722
 20
12.8763047707
 11
12.2725055328
 21
12.820214895
  0
LINE
  5
337
100
AcDbEntity
  8
0
100
AcDbLine
 62
7
  6
CONTINUOUS
 10
11.1305549055
 20
14.3471756076
 11
11.1305549055
 21
14.2684354501
  0
LINE
  5
338
100
AcDbEntity
  8
0
100
AcDbLine
 62
7
  6
CONTINUOUS
 10
11.1305549055
 20
13.9928448989
 11
11.1305549055
 21
14.1896952926
  0
LINE
  5
339
100
AcDbEntity
  8
0
100
AcDbLine
 62
7
  6
CONTINUOUS
 10
11.3096755735
 20
14.0301545069
 11
11.3149418042
 21
14.1306401745
  0
LINE
  5
33A
100
AcDbEntity
  8
0
100
AcDbLine
 62
7
  6
CONTINUOUS
 10
11.5242501585
 20
13.9928448989
 11
11.5242501585
 21
14.0912700958
  0
LINE
  5
33B
100
AcDbEntity
  8
0
100
AcDbLine
 62
7
  6
CONTINUOUS
 10
11.5242556929
 20
14.2684354501
 11
11.5242556929
 21
14.3471756076
  0
LINE
  5
33C
100
AcDbEntity
  8
0
100
AcDbLine
 62
7
  6
CONTINUOUS
 10
11.8153209793
 20
13.9534748202
 11
11.5636202372
 21
13.9534748202
  0
LINE
  5
33D
100
AcDbEntity
  8
0
100
AcDbLine
 62
7
  6
CONTINUOUS
 10
11.1305549055
 20
13.9928448989
 11
11.5242501585
 21
13.9928448989
  0
LINE
  5
33E
100
AcDbEntity
  8
0
100
AcDbLine
 62
7
  6
CONTINUOUS
 10
11.3149418042
 20
14.1306401745
 11
11.6939537101
 21
14.1306401745
  0
LINE
  5
33F
100
AcDbEntity
  8
0
100
AcDbLine
 62
7
  6
CONTINUOUS
 10
11.8119020803
 20
14.0187113504
 11
11.8717730722
 21
12.8763047707
  0
LINE
  5
340
100
AcDbEntity
  8
0
100
AcDbLine
 62
7
  6
CONTINUOUS
 10
11.1502399448
 20
14.2487504107
 11
13.950317807
 21
14.2487504107
  0
LINE
  5
341
100
AcDbEntity
  8
0
100
AcDbLine
 62
7
  6
CONTINUOUS
 10
8.7191021415
 20
14.3668606469
 11
13.9723534697
 21
14.3668606469
  0
LINE
  5
342
100
AcDbEntity
  8
0
100
AcDbLine
 62
7
  6
CONTINUOUS
 10
11.9430998021
 20
14.0248927626
 11
12.0042666457
 21
12.8577598591
  0
LINE
  5
343
100
AcDbEntity
  8
0
100
AcDbLine
 62
7
  6
CONTINUOUS
 10
11.9341218346
 20
14.4293606469
 11
11.9341218346
 21
14.6793606469
  0
LINE
  5
344
100
AcDbEntity
  8
0
100
AcDbLine
 62
7
  6
CONTINUOUS
 10
8.7265841589
 20
14.7418606469
 11
13.8977172135
 21
14.7418606469
  0
LINE
  5
345
100
AcDbEntity
  8
0
100
AcDbLine
 62
7
  6
CONTINUOUS
 10
12.8840378689
 20
12.8205002225
 11
13.4045810523
 21
13.0114174211
  0
LINE
  5
346
100
AcDbEntity
  8
0
100
AcDbLine
 62
7
  6
CONTINUOUS
 10
13.4045810523
 20
13.0114174211
 11
13.8267373079
 21
13.5863640726
  0
LINE
  5
347
100
AcDbEntity
  8
0
100
AcDbLine
 62
7
  6
CONTINUOUS
 10
13.8267373079
 20
13.5863640726
 11
13.9730589822
 21
14.3706421645
  0
LINE
  5
348
100
AcDbEntity
  8
0
100
AcDbLine
 62
7
  6
CONTINUOUS
 10
13.9730589822
 20
14.3706421645
 11
13.8977172135
 21
14.7418606469
  0
ARC
  5
349
100
AcDbEntity
  8
0
100
AcDbCircle
 62
7
  6
CONTINUOUS
 10
6.1564970019
 20
24.4082461897
 40
0.1968503937
100
AcDbArc
 50
90.0
 51
180.0
  0
ARC
  5
34A
100
AcDbEntity
  8
0
100
AcDbCircle
 62
7
  6
CONTINUOUS
 10
6.1564970019
 20
8.4239942212
 40
0.1968503937
100
AcDbArc
 50
180.0
 51
270.0
  0
ARC
  5
34B
100
AcDbEntity
  8
0
100
AcDbCircle
 62
7
  6
CONTINUOUS
 10
36.9438985767
 20
8.4239942212
 40
0.1968503937
100
AcDbArc
 50
270.0
 51
360.0
  0
ARC
  5
34C
100
AcDbEntity
  8
0
100
AcDbCircle
 62
7
  6
CONTINUOUS
 10
36.9438985767
 20
24.4082461897
 40
0.1968503937
100
AcDbArc
 50
0.0
 51
90.0
  0
ARC
  5
34D
100
AcDbEntity
  8
0
100
AcDbCircle
 62
2
  6
CONTINUOUS
 10
36.9438985767
 20
24.4082461897
 40
0.1968503937
100
AcDbArc
 50
90.0
 51
228.8454751429
  0
ARC
  5
34E
100
AcDbEntity
  8
0
100
AcDbCircle
 62
7
  6
CONTINUOUS
 10
19.4686774663
 20
13.167231374
 40
0.2952755906
100
AcDbArc
 50
183.0
 51
200.9351867938
  0
ARC
  5
34F
100
AcDbEntity
  8
0
100
AcDbCircle
 62
7
  6
CONTINUOUS
 10
18.8920910913
 20
14.0136880669
 40
0.2362204724
100
AcDbArc
 50
3.0
 51
90.0
  0
ARC
  5
350
100
AcDbEntity
  8
0
100
AcDbCircle
 62
7
  6
CONTINUOUS
 10
18.4331444837
 20
14.2499085394
 40
0.1181102362
100
AcDbArc
 50
188.2132107017
 51
270.0
  0
ARC
  5
351
100
AcDbEntity
  8
0
100
AcDbCircle
 62
7
  6
CONTINUOUS
 10
18.3909320811
 20
14.2499085394
 40
0.1181102362
100
AcDbArc
 50
23.5781784782
 51
90.0
  0
ARC
  5
352
100
AcDbEntity
  8
0
100
AcDbCircle
 62
7
  6
CONTINUOUS
 10
17.1146555336
 20
14.2499085394
 40
0.1181102362
100
AcDbArc
 50
90.0
 51
180.0
  0
ARC
  5
353
100
AcDbEntity
  8
0
100
AcDbCircle
 62
7
  6
CONTINUOUS
 10
18.8788417398
 20
14.0136880669
 40
0.1181102362
100
AcDbArc
 50
3.0
 51
90.0
  0
ARC
  5
354
100
AcDbEntity
  8
0
100
AcDbCircle
 62
7
  6
CONTINUOUS
 10
18.571348447
 20
14.3286486968
 40
0.0787401575
100
AcDbArc
 50
203.5781784782
 51
270.0
  0
ARC
  5
355
100
AcDbEntity
  8
0
100
AcDbCircle
 62
7
  6
CONTINUOUS
 10
18.3687179906
 20
14.4305187756
 40
0.0625
100
AcDbArc
 50
270.0
 51
360.0
  0
ARC
  5
356
100
AcDbEntity
  8
0
100
AcDbCircle
 62
7
  6
CONTINUOUS
 10
18.3687179906
 20
14.6805187756
 40
0.0625
100
AcDbArc
 50
0.0
 51
90.0
  0
ARC
  5
357
100
AcDbEntity
  8
0
100
AcDbCircle
 62
7
  6
CONTINUOUS
 10
17.0772947239
 20
14.0333731063
 40
0.0393700787
100
AcDbArc
 50
270.0
 51
357.0
  0
ARC
  5
358
100
AcDbEntity
  8
0
100
AcDbCircle
 62
7
  6
CONTINUOUS
 10
17.7642618328
 20
14.0136880669
 40
0.0196850394
100
AcDbArc
 50
270.0
 51
360.0
  0
ARC
  5
359
100
AcDbEntity
  8
0
100
AcDbCircle
 62
7
  6
CONTINUOUS
 10
17.4296161636
 20
14.0136880669
 40
0.0196850394
100
AcDbArc
 50
180.0
 51
270.0
  0
ARC
  5
35A
100
AcDbEntity
  8
0
100
AcDbCircle
 62
7
  6
CONTINUOUS
 10
17.8036319116
 20
14.2302235
 40
0.0196850394
100
AcDbArc
 50
90.0
 51
180.0
  0
ARC
  5
35B
100
AcDbEntity
  8
0
100
AcDbCircle
 62
7
  6
CONTINUOUS
 10
17.3902460848
 20
14.2302235
 40
0.0196850394
100
AcDbArc
 50
0.0
 51
90.0
  0
ARC
  5
35C
100
AcDbEntity
  8
0
100
AcDbCircle
 62
7
  6
CONTINUOUS
 10
17.1467473781
 20
14.2302235
 40
0.0196850394
100
AcDbArc
 50
90.0
 51
177.0
  0
ARC
  5
35D
100
AcDbEntity
  8
0
100
AcDbCircle
 62
7
  6
CONTINUOUS
 10
18.2967625303
 20
14.2302235
 40
0.0196850394
100
AcDbArc
 50
8.2132107017
 51
90.0
  0
ARC
  5
35E
100
AcDbEntity
  8
0
100
AcDbCircle
 62
7
  6
CONTINUOUS
 10
11.7072030616
 20
14.0125299383
 40
0.2362204724
100
AcDbArc
 50
3.0
 51
90.0
  0
ARC
  5
35F
100
AcDbEntity
  8
0
100
AcDbCircle
 62
7
  6
CONTINUOUS
 10
11.6939537101
 20
14.0125299383
 40
0.1181102362
100
AcDbArc
 50
3.0
 51
90.0
  0
ARC
  5
360
100
AcDbEntity
  8
0
100
AcDbCircle
 62
7
  6
CONTINUOUS
 10
11.2486651417
 20
14.2487504107
 40
0.1181102362
100
AcDbArc
 50
173.8613270439
 51
180.0
  0
ARC
  5
361
100
AcDbEntity
  8
0
100
AcDbCircle
 62
7
  6
CONTINUOUS
 10
11.8716218346
 20
14.4293606469
 40
0.0625
100
AcDbArc
 50
270.0
 51
360.0
  0
ARC
  5
362
100
AcDbEntity
  8
0
100
AcDbCircle
 62
7
  6
CONTINUOUS
 10
11.8716218346
 20
14.6793606469
 40
0.0625
100
AcDbArc
 50
0.0
 51
90.0
  0
ARC
  5
363
100
AcDbEntity
  8
0
100
AcDbCircle
 62
7
  6
CONTINUOUS
 10
11.1896100236
 20
14.1896952926
 40
0.0590551181
100
AcDbArc
 50
90.0
 51
180.0
  0
ARC
  5
364
100
AcDbEntity
  8
0
100
AcDbCircle
 62
7
  6
CONTINUOUS
 10
11.4848800797
 20
14.0912700958
 40
0.0393700787
100
AcDbArc
 50
0.0
 51
90.0
  0
ARC
  5
365
100
AcDbEntity
  8
0
100
AcDbCircle
 62
7
  6
CONTINUOUS
 10
11.2703594501
 20
14.0322149777
 40
0.0393700787
100
AcDbArc
 50
270.0
 51
357.0
  0
ARC
  5
366
100
AcDbEntity
  8
0
100
AcDbCircle
 62
7
  6
CONTINUOUS
 10
11.5636202372
 20
13.9928448989
 40
0.0393700787
100
AcDbArc
 50
180.0
 51
270.0
  0
ARC
  5
367
100
AcDbEntity
  8
0
100
AcDbCircle
 62
7
  6
CONTINUOUS
 10
11.1502399448
 20
14.3471756076
 40
0.0196850394
100
AcDbArc
 50
90.0
 51
180.0
  0
ARC
  5
368
100
AcDbEntity
  8
0
100
AcDbCircle
 62
7
  6
CONTINUOUS
 10
11.5045706535
 20
14.3471756076
 40
0.0196850394
100
AcDbArc
 50
0.0
 51
90.0
  0
ARC
  5
369
100
AcDbEntity
  8
0
100
AcDbCircle
 62
7
  6
CONTINUOUS
 10
11.5045706535
 20
14.2684354501
 40
0.0196850394
100
AcDbArc
 50
270.0
 51
360.0
  0
ARC
  5
36A
100
AcDbEntity
  8
0
100
AcDbCircle
 62
7
  6
CONTINUOUS
 10
11.1502399448
 20
14.2684354501
 40
0.0196850394
100
AcDbArc
 50
180.0
 51
270.0
  0
SPLINE
  5
36B
100
AcDbEntity
  8
0
100
AcDbSpline
 62
7
  6
CONTINUOUS
 70
0
 71
3
 72
12
 73
8
 74
0
 42
0.0000001
 43
0.0000001
 44
0.0000000001
 40
0.0
 40
0.0
 40
0.0
 40
0.0
 40
0.1251197054
 40
0.3099244043
 40
0.5214201238
 40
0.7281875608
 40
1.0
 40
1.0
 40
1.0
 40
1.0
 10
10.6700027406
 20
12.3798308151
 30
0.0
 10
10.6832252295
 20
12.3672826998
 30
0.0
 10
10.7235945649
 20
12.3517760966
 30
0.0
 10
10.7976890199
 20
12.3778129528
 30
0.0
 10
10.8366741288
 20
12.4570931572
 30
0.0
 10
10.9352560346
 20
12.4731014969
 30
0.0
 10
11.0073293352
 20
12.4503939014
 30
0.0
 10
11.0328686194
 20
12.4373934702
 30
0.0
  0
SPLINE
  5
36C
100
AcDbEntity
  8
0
100
AcDbSpline
 62
7
  6
CONTINUOUS
 70
0
 71
3
 72
12
 73
8
 74
0
 42
0.0000001
 43
0.0000001
 44
0.0000000001
 40
0.0
 40
0.0
 40
0.0
 40
0.0
 40
0.135453629
 40
0.3328741558
 40
0.5615535299
 40
0.7841918094
 40
1.0
 40
1.0
 40
1.0
 40
1.0
 10
16.4921513767
 20
12.9624905201
 30
0.0
 10
16.5064241388
 20
12.9447485845
 30
0.0
 10
16.5474819612
 20
12.9255979562
 30
0.0
 10
16.6255064468
 20
12.9583816018
 30
0.0
 10
16.6940228872
 20
13.0143341877
 30
0.0
 10
16.7912797373
 20
13.020466386
 30
0.0
 10
16.8477816051
 20
12.9917846069
 30
0.0
 10
16.868035602
 20
12.9697676753
 30
0.0
  0
ENDSEC
  0
SECTION
  2
OBJECTS
  0
DICTIONARY
  5
C
100
AcDbDictionary
280
0
281
1
  3
ACAD_GROUP
350
D
  3
ACAD_MLINESTYLE
350
17
  3
ACAD_LAYOUT
350
1A
  3
ACAD_PLOTSETTINGS
350
19
  3
ACAD_PLOTSTYLENAME
350
E
  0
DICTIONARY
  5
D
102
{ACAD_REACTORS
330
C
102
}
100
AcDbDictionary
280
0
281
1
  0
ACDBDICTIONARYWDFLT
  5
E
102
{ACAD_REACTORS
330
C
102
}
100
AcDbDictionary
281
1
  3
Normal
350
F
100
AcDbDictionaryWithDefault
340
F
  0
DICTIONARY
  5
17
102
{ACAD_REACTORS
330
C
102
}
100
AcDbDictionary
280
0
281
1
  3
Standard
350
18
  0
DICTIONARY
  5
19
102
{ACAD_REACTORS
330
C
102
}
100
AcDbDictionary
281
1
  0
DICTIONARY
  5
1A
102
{ACAD_REACTORS
330
C
102
}
100
AcDbDictionary
281
1
  3
Model
350
36D
  3
Layout1
350
36E
  0
ACDBPLACEHOLDER
  5
F
102
{ACAD_REACTORS
330
E
102
}
  0
MLINESTYLE
  5
18
102
{ACAD_REACTORS
330
17
102
}
100
AcDbMlineStyle
  2
STANDARD
 70
0
  3

 62
256
 51
90.0
 52
90.0
 71
2
 49
0.5
 62
256
  6
BYLAYER
 49
-0.5
 62
256
  6
BYLAYER
  0
LAYOUT
  5
36D
102
{ACAD_REACTORS
330
1A
102
}
100
AcDbPlotSettings
  1

  2
none_device
  4
ANSI_E_(44.00_x_34.00_Inches)
  6

 40
0.0
 41
0.0
 42
0.0
 43
0.0
 44
1117.6
 45
863.6
 46
0.0
 47
0.0
 48
0.0
 49
0.0
140
0.0
141
0.0
142
1.0
143
1.0
 70
1024
 72
0
 73
0
 74
0
  7

 75
0
147
1.0
148
0.0
149
0.0
100
AcDbLayout
  1
Model
 70
0
 71
0
 10
0.0
 20
0.0
 11
44.0
 21
34.0
 12
0.0
 22
0.0
 32
0.0
 14
0.0
 24
0.0
 34
0.0
 15
0.0
 25
0.0
 35
0.0
146
0.0
 13
0.0
 23
0.0
 33
0.0
 16
1.0
 26
0.0
 36
0.0
 17
0.0
 27
1.0
 37
0.0
 76
0
330
218
345
0
346
0
  0
LAYOUT
  5
36E
102
{ACAD_REACTORS
330
1A
102
}
100
AcDbPlotSettings
  1

  2
none_device
  4
ANSI_E_(44.00_x_34.00_Inches)
  6

 40
0.0
 41
0.0
 42
0.0
 43
0.0
 44
1117.6
 45
863.6
 46
0.0
 47
0.0
 48
0.0
 49
0.0
140
0.0
141
0.0
142
1.0
143
1.0
 70
0
 72
0
 73
0
 74
0
  7

 75
0
147
1.0
148
0.0
149
0.0
100
AcDbLayout
  1
Layout1
 70
0
 71
1
 10
0.0
 20
0.0
 11
44.0
 21
34.0
 12
0.0
 22
0.0
 32
0.0
 14
0.0
 24
0.0
 34
0.0
 15
0.0
 25
0.0
 35
0.0
146
0.0
 13
0.0
 23
0.0
 33
0.0
 16
1.0
 26
0.0
 36
0.0
 17
0.0
 27
1.0
 37
0.0
 76
0
330
219
345
0
346
0
  0
ENDSEC
  0
EOF
